VA - Lifetime of Romance: Falling In Love (2004) 2CD
MP3 FLAC WMA APE HD

VA - Lifetime of Romance: Falling In Love (2004) 2CD

Artist: VA
Title Of Album: Lifetime of Romance: Falling In Love
Year Of Release: 2004
Label: Time Life
Genre: Classical pop, Oldies, Romantic music
Quality: FLAC (Img,cue,log,scans)|MP3
Bitrate: lossless | 320kbps
Total Time: 83:94 min
Total Size: 517 mb/220 mb
TRACKLIST
Disc 7 (Falling In Love - Disc 1 of 2)
1. The Look Of Love - Sergio Mendes & Brasil '66 2:41
2. This Is My Song - Petula Clark 3:15
3. What A Diff'rence A Day Makes - Dinah Washington 2:30
4. The Impossible Dream - Jack Jones 2:17
5. Wonderland By Night - Bert Kaempfert 3:14
6. Three Coins In The Fountain - Four Aces Featuring Al Alberts 3:04
7. The Tennessee Waltz - Patti Page 3:03
8. Crazy - Patsy Cline 2:44
9. All Alone Am I - Brenda Lee 2:45
10. Release Me - Engelbert Humperdinck 3:19
11. At Last - Etta James 3:00
12. It's All In The Game - Tommy Edwards 2:37
13. Harbor Lights - The Platters 2:45
14. Ebb Tide - Righteous Brothers 2:49
15. Hello Dolly - Louis Armstrong And The All-Stars 2:25
Disc 8 (Falling In Love - Disc 2 of 2)
1. Mack The Knife - Bobby Darin 3:10
2. Love Letters In The Sand - Pat Boone 2:24
3. Autumn Leaves - Roger Williams 2:54
4. Smoke Gets In Your Eyes - The Platters 2:39
5. Unchained Melody - Righteous Brothers 3:37
6. Stranger On The Shore - Mr. Acker Bilk 2:56
7. The Girl From Ipanema - Stan Getz 2:46
8. The Entertainer - Marvin Hamlisch 3:05
9. Love Will Keep Us Together - Captain And Tennille 3:24
10. The Morning After - Maureen McGovern 2:19
11. Snowbird - Anne Murray 2:11
12. I Fall To Pieces - Patsy Cline 2:50
13. Who's Sorry Now - Connie Francis 2:18
14. What A Wonderful World - Louis Armstrong 2:18
15. As Time Goes By - Dooley Wilson 3:01
30 great hits like Mack the Knife (Bobby Darin), What a Wonderful World (Louis Armstrong), Unchained Melody (Righteous Brothers), Crazy (Patsy Cline), Look of Love (Sergio Mendez), Who's Sorry Now (Connie Francis), Snowbird (Anne Murray), and many more.
Lifetime of Romance was a 8-volume Love Songs CD Set. released by Time-Life Records in 2004, featuring songs from the 1950's through the 1980's but it was never sold in stores.
Exact Audio Copy V0.99 prebeta 4 from 23. January 2008
Отчёт EAC об извлечении, выполненном 7. марта 2009, 12:30
Various / Lifetime Of Romance - Falling In Love Disc 1
Дисковод: TEAC CD-W552G Adapter: 0 ID: 1
Режим чтения : Достоверность
Использование точного потока : Да
Отключение кэша аудио : Да
Использование указателей C2 : Нет
Коррекция смещения при чтении : 6
Способность читать области Lead-in и Lead-out : Нет
Заполнение пропущенных сэмплов тишиной : Да
Удаление блоков с тишиной в начале и конце : Нет
При вычислениях CRC использовались нулевые сэмплы : Нет
Интерфейс : Установленный внешний ASPI-интерфейс
Выходной формат : Пользовательский кодировщик
Выбранный битрейт : 768 kBit/s
Качество : Высокий
Добавление ID3-тэга : Нет
Утилита сжатия : C:Program FilesExact Audio CopyFLACFLAC.EXE
Дополнительные параметры : -6 -V -T "ARTIST=%a" -T "TITLE=%t" -T "ALBUM=%g" -T "DATE=%y" -T "TRACKNUMBER=%n" -T "GENRE=%m" -T "COMMENT=%e" %s -o %d
TOC извлечённого CD
Трек | Старт | Длительность | Начальный сектор | Конечный сектор
---------------------------------------------------------------------
1 | 0:00.00 | 2:41.22 | 0 | 12096
2 | 2:41.22 | 3:15.50 | 12097 | 26771
3 | 5:56.72 | 2:30.57 | 26772 | 38078
4 | 8:27.54 | 2:17.74 | 38079 | 48427
5 | 10:45.53 | 3:14.35 | 48428 | 63012
6 | 14:00.13 | 3:04.57 | 63013 | 76869
7 | 17:04.70 | 3:03.56 | 76870 | 90650
8 | 20:08.51 | 2:44.65 | 90651 | 103015
9 | 22:53.41 | 2:45.03 | 103016 | 115393
10 | 25:38.44 | 3:19.38 | 115394 | 130356
11 | 28:58.07 | 3:00.18 | 130357 | 143874
12 | 31:58.25 | 2:37.53 | 143875 | 155702
13 | 34:36.03 | 2:45.51 | 155703 | 168128
14 | 37:21.54 | 2:49.58 | 168129 | 180861
15 | 40:11.37 | 2:25.57 | 180862 | 191793
Характеристики диапазона извлечения и сообщения об ошибках
Выбранный диапазон
Имя файла E:Lifetime RomanceFalling in LoveCD1Various - Lifetime Of Romance - Falling In Love Disc 1.wav
Пиковый уровень 99.9 %
Качество диапазона 99.9 %
CRC копии 19E2E65D
Копирование... OK
Ошибок не произошло
Конец отчёта
Exact Audio Copy V0.99 prebeta 4 from 23. January 2008
Отчёт EAC об извлечении, выполненном 7. марта 2009, 12:39
Various / Lifetime Of Romance - Falling In Love (TimeLife Disc 2)
Дисковод: TEAC CD-W552G Adapter: 0 ID: 1
Режим чтения : Достоверность
Использование точного потока : Да
Отключение кэша аудио : Да
Использование указателей C2 : Нет
Коррекция смещения при чтении : 6
Способность читать области Lead-in и Lead-out : Нет
Заполнение пропущенных сэмплов тишиной : Да
Удаление блоков с тишиной в начале и конце : Нет
При вычислениях CRC использовались нулевые сэмплы : Нет
Интерфейс : Установленный внешний ASPI-интерфейс
Выходной формат : Пользовательский кодировщик
Выбранный битрейт : 768 kBit/s
Качество : Высокий
Добавление ID3-тэга : Нет
Утилита сжатия : C:Program FilesExact Audio CopyFLACFLAC.EXE
Дополнительные параметры : -6 -V -T "ARTIST=%a" -T "TITLE=%t" -T "ALBUM=%g" -T "DATE=%y" -T "TRACKNUMBER=%n" -T "GENRE=%m" -T "COMMENT=%e" %s -o %d
TOC извлечённого CD
Трек | Старт | Длительность | Начальный сектор | Конечный сектор
---------------------------------------------------------------------
1 | 0:00.00 | 3:10.58 | 0 | 14307
2 | 3:10.58 | 2:24.06 | 14308 | 25113
3 | 5:34.64 | 2:54.65 | 25114 | 38228
4 | 8:29.54 | 2:39.30 | 38229 | 50183
5 | 11:09.09 | 3:37.08 | 50184 | 66466
6 | 14:46.17 | 2:56.15 | 66467 | 79681
7 | 17:42.32 | 2:46.11 | 79682 | 92142
8 | 20:28.43 | 3:05.04 | 92143 | 106021
9 | 23:33.47 | 3:24.09 | 106022 | 121330
10 | 26:57.56 | 2:19.42 | 121331 | 131797
11 | 29:17.23 | 2:11.39 | 131798 | 141661
12 | 31:28.62 | 2:50.24 | 141662 | 154435
13 | 34:19.11 | 2:18.70 | 154436 | 164855
14 | 36:38.06 | 2:18.47 | 164856 | 175252
15 | 38:56.53 | 3:01.11 | 175253 | 188838
Характеристики диапазона извлечения и сообщения об ошибках
Выбранный диапазон
Имя файла E:Lifetime RomanceFalling in LoveCD2Various - Lifetime Of Romance - Falling In Love (TimeLife Disc 2).wav
Пиковый уровень 100.0 %
Качество диапазона 100.0 %
CRC копии D8388E68
Копирование... OK
Ошибок не произошло
Конец отчёта
Hotfile.com:
Filesonic.com:
MP3:
Hotfile.com:
Filesonic.com:




Alternative download links

part1 part2 part3 part1 part2

Related MP3 FLAC to VA - Lifetime of Romance: Falling In Love (2004) 2CD
Feedback
All rights reserved.
WEBBG.com © 2000-2018