Dimension - Second Dimension (1994)
MP3 FLAC WMA APE HD

Dimension - Second Dimension (1994)

  • Genre: Music, Jazz, FLAC / APE
  • Formats: MP3 FLAC WMA HD APE
  • Album Size: 1658 mb.
  • Archive: ZIP RAR
Artist: Dimension
Title Of Album: Second Dimension
Year Of Release: 1994
Label: BMG Rooms
Genre: Jazz, Fusion
Quality: APE(Img,cue,log,scans) | MP3
Bitrate: lossless | 320kbps
Total Time: 55:47 min
Total Size: 423 mb/136 mb (+5% rec.)
Tracklist
1. Are You Gonna Win? (K. KATSUTA)
Guitar: Takashi Masuzaki
Keyboard, Loop ds. & Syn. Bass: Akira Onozuka
Saxophone: Kazuki Katsuta
Drums fills: Kozo Suganuma
El. Bass: Tomohito Aoki
2. Early Morning (K. KATSUTA)
Guitar: Takashi Masuzaki
Keyboard: Akira Onozuka
Saxophone: Kazuki Katsuta
Drums: Masaharu Ishikawa
El. Bass: Tomohito Aoki
3. It's Up To You (T. MASUZAKI)
Guitar: Takashi Masuzaki
Keyboard: Akira Onozuka
Saxophone: Kazuki Katsuta
Drums: Nobuo Eguchi
El. Bass: Tomohito Aoki
Trumpet: Shiro Sasaki (ORQUESTA DE LA LUZ), Futoshi Kobayashi
Trombone: Hideaki Nakaji (ORQUESTA DE LA LUZ)
4. Sea In The Moon (T. MASUZAKI)
Guitar: Takashi Masuzaki
Keyboard & Piano: Akira Onozuka
Saxophone: Kazuki Katsuta
Drums: Yuichi Togashiki
Fretless Bass: Naoki Watanabe
5. Beat #5 (K. KATSUTA)
Guitar: Takashi Masuzaki
Keyboard: Akira Onozuka
Saxophone: Kazuki Katsuta
Drums: Masaharu Ishikawa
El. Bass: Tomohito Aoki
6. F-Blues (A. ONOZUKA)
Guitar: Takashi Masuzaki
Keyboard: Akira Onozuka
Saxophone: Kazuki Katsuta
Drums: Kozo Suganuma
El. Bass: Tomohito Aoki
7. 2nd Street (A. ONOZUKA)
Guitar: Takashi Masuzaki
Keyboard & Piano: Akira Onozuka
Saxophone: Kazuki Katsuta
Drums: Nobuo Eguchi
El. Bass: Tomohito Aoki
8. Running from Zero (K. KATSUTA)
Guitar: Takashi Masuzaki
Keyboard, Loop ds. & Syn. Bass: Akira Onozuka
Saxophone: Kazuki Katsuta
9. Kiraboshi (A. ONOZUKA)
Guitar: Takashi Masuzaki
Piano: Akira Onozuka
Saxophone: Kazuki Katsuta
10. This Time (T. MASUZAKI)
Guitar: Takashi Masuzaki
Keyboard & Piano: Akira Onozuka
Saxophone: Kazuki Katsuta
Drums: Nobuo Eguchi
El. Bass: Tomohito Aoki
Takashi Masuzaki - Guitar
Kazuki Katsuta - Sax
Akira Onozuka - Keyboards
EAC extraction logfile from 7. March 2006, 15:06 for CD
Dimension / Second Dimension
Used drive : PIONEER DVD RW DVR-106D Adapter: 1 ID: 0
Read mode : Secure with NO C2, accurate stream, disable cache
Read offset correction : 48
Overread into Lead-In and Lead-Out : No
Used output format : C:Program FilesFLACflac.exe (User Defined Encoder)
128 kBit/s
Additional command line options : -5 -V -T "ARTIST=%a" -T "TITLE=%t" -T "ALBUM=%g" -T "DATE=%y" -T "TRACKNUMBER=%n" -T "GENRE=%m" -T "COMMENT=EAC Flac 1.1.2 -5" %s
Other options :
Fill up missing offset samples with silence : Yes
Delete leading and trailing silent blocks : No
Installed external ASPI interface
Track 1
Filename D:Dimension - Second Dimension [flac]1 - Are You Gonna Win.wav
Pre-gap length 0:00:02.00
Peak level 99.2 %
Track quality 100.0 %
Test CRC DECCEBD8
Copy CRC DECCEBD8
Copy OK
Track 2
Filename D:Dimension - Second Dimension [flac]2 - Early Morning.wav
Pre-gap length 0:00:00.80
Peak level 99.2 %
Track quality 100.0 %
Test CRC 21E1F176
Copy CRC 21E1F176
Copy OK
Track 3
Filename D:Dimension - Second Dimension [flac]3 - It's Up To You.wav
Pre-gap length 0:00:00.69
Peak level 99.2 %
Track quality 100.0 %
Test CRC 70DBAADB
Copy CRC 70DBAADB
Copy OK
Track 4
Filename D:Dimension - Second Dimension [flac]4 - Sea In The Moon.wav
Pre-gap length 0:00:01.57
Peak level 99.2 %
Track quality 100.0 %
Test CRC 9861DCC3
Copy CRC 9861DCC3
Copy OK
Track 5
Filename D:Dimension - Second Dimension [flac]5 - Beat #5.wav
Pre-gap length 0:00:00.50
Peak level 92.1 %
Track quality 100.0 %
Test CRC E09648A7
Copy CRC E09648A7
Copy OK
Track 6
Filename D:Dimension - Second Dimension [flac]6 - F-Blues.wav
Pre-gap length 0:00:01.30
Peak level 99.2 %
Track quality 100.0 %
Test CRC 19169E45
Copy CRC 19169E45
Copy OK
Track 7
Filename D:Dimension - Second Dimension [flac]7 - 2nd Street.wav
Pre-gap length 0:00:00.93
Peak level 99.2 %
Track quality 100.0 %
Test CRC 4F6D7CE4
Copy CRC 4F6D7CE4
Copy OK
Track 8
Filename D:Dimension - Second Dimension [flac]8 - Running From Zero.wav
Pre-gap length 0:00:01.49
Peak level 99.2 %
Track quality 99.9 %
Test CRC E121B3BB
Copy CRC E121B3BB
Copy OK
Track 9
Filename D:Dimension - Second Dimension [flac]9 - KIRABOSHI.wav
Pre-gap length 0:00:01.56
Peak level 99.2 %
Track quality 100.0 %
Test CRC 4DE79017
Copy CRC 4DE79017
Copy OK
Track 10
Filename D:Dimension - Second Dimension [flac]10 - This Time.wav
Pre-gap length 0:00:00.86
Peak level 99.2 %
Track quality 100.0 %
Test CRC 4A43A540
Copy CRC 4A43A540
Copy OK
No errors occured
End of status report
DIMENSION are a Japanese electric jazz group formed in Tokyo in1992.The group comprises Takashi Masuzaki(Guitar), Akira Onozuka(Keyboards), Kazuki Katsuta(saxophone).
DIMENSION released their first album, Le Mans, as TV Program for the 24 Hours of Le Mans soundtrack, in 1992.Then they has released 20 albums of original work in past 15 years, and performed at Tokyo Jazz Festival, Seoul Jazz Festival and more music festivals. All albums are highly regarded and win best jazz prize of Japanese jazz music magazine "ADLIB" many times. Also, they has played a lot of recordings and sessions as solo musician for other artists.
In November 2007, they released 20th Album, NEWISH, as 15th Anniversary
Lossless

MP3




Alternative download links

hotfile.com-1 hotfile.com-2 hotfile.com-3 fileserve.com-1 fileserve.com-2 fileserve.com-3 uploaded.to-1 uploaded.to-2 uploaded.to-3 HOTFILE FILESERVE UPLOADED

Related MP3 FLAC to Dimension - Second Dimension (1994)
Feedback
All rights reserved.
WEBBG.com © 2000-2018