Gary Hughes - Strength Of Heart (1992)
MP3 FLAC WMA APE HD

Gary Hughes - Strength Of Heart (1992)

Artist: Gary Hughes
Title Of Album: Strength Of Heart
Year Of Release: 1992
Label: Flagg Music
Genre: AOR
Quality: APE (image+.cue) + log
Bitrate: Lossless
Total Time: 61:24
Total Size: 400 Mb
Gary Hughes (born 5 July 1967, Manchester) is an English hard rock singer, songwriter and musician. Apart from his work as a solo artist, Gary Hughes is the front man and main songwriter of Hard Rock/Melodic Rock band Ten.
Tracklist:
01. Some Kind of Evil 4:49
02. Only True Love Lasts Forever 3:39
03. Strength of Heart 4:38
04. Bringin' All of Your Love to Me 5:07
05. Big Bad Wolf 3:37
06. Helen's Eyes 4:53
07. Man Behind the Mask 3:32
08. Christine 4:23
09. Hammer Your Heart 3:02
10. Can't Get You Out of My Head 4:47
11. Photograph 5:31
12. Stay 4:22
13. Vigilante 4:57
14. Helen's Eyes (Reprise) 3:28
Exact Audio Copy V0.99 prebeta 5 from 4. May 2009
EAC extraction logfile from 14. August 2011, 8:32
Gary Hughes / Strength Of Heart
Used drive : TSSTcorpCDDVDW SH-S223C Adapter: 1 ID: 1
Read mode : Secure
Utilize accurate stream : Yes
Defeat audio cache : Yes
Make use of C2 pointers : No
Read offset correction : 697
Overread into Lead-In and Lead-Out : No
Fill up missing offset samples with silence : Yes
Delete leading and trailing silent blocks : No
Null samples used in CRC calculations : Yes
Used interface : Installed external ASPI interface
Used output format : Internal WAV Routines
Sample format : 44.100 Hz; 16 Bit; Stereo
TOC of the extracted CD
Track | Start | Length | Start sector | End sector
---------------------------------------------------------
1 | 0:00.00 | 4:50.40 | 0 | 21789
2 | 4:50.40 | 3:43.70 | 21790 | 38584
3 | 8:34.35 | 4:43.17 | 38585 | 59826
4 | 13:17.52 | 5:10.43 | 59827 | 83119
5 | 18:28.20 | 3:38.45 | 83120 | 99514
6 | 22:06.65 | 4:55.05 | 99515 | 121644
7 | 27:01.70 | 3:33.62 | 121645 | 137681
8 | 30:35.57 | 4:27.43 | 137682 | 157749
9 | 35:03.25 | 3:04.27 | 157750 | 171576
10 | 38:07.52 | 4:50.68 | 171577 | 193394
11 | 42:58.45 | 5:31.50 | 193395 | 218269
12 | 48:30.20 | 4:23.62 | 218270 | 238056
13 | 52:54.07 | 4:58.70 | 238057 | 260476
14 | 57:53.02 | 3:31.70 | 260477 | 276371
Range status and errors
Selected range
Filename E:Gary Hughes - Strength Of Heart Strength Of Heart.wav
Peak level 100.0 %
Range quality 100.0 %
Copy CRC 4DBD514E
Copy OK
No errors occurred
End of status report
FileSonic
Wupload



Alternative download links

DOWNLOAD

Related MP3 FLAC to Gary Hughes - Strength Of Heart (1992)
Feedback
All rights reserved.
WEBBG.com © 2000-2018