Bill Sharpe - State Of The Heart (1999)
MP3 FLAC WMA APE HD

Bill Sharpe - State Of The Heart (1999)

Artist: Bill Sharpe
Title Of Album: State Of The Heart
Year Of Release: 1999
Label: Instinct Records
Genre: Jazz, Jazz-Funk, Smooth Jazz
Quality: APE (image, cue, log) | MP3
Bitrate: lossless | 320kbps
Total Time: 54:19 min
Total Size: 362 mb/133 mb (+5% rec.)
Tracklist
1 - Pacific Nights - Sharpe - 4:53
2 - Light on My Life - Odell, Sharpe - 4:29
3 - Hypnotique - Sharpe - 5:58
4 - P'ra Voce Amor (For You, My Love) - Acuna, DaCosta, De Costa, Laboriel, Rios, Sharpe - 4:30
5 - My Blue Heart - Sharpe, Taylor - 4:53
6 - Hermanos de Luxe - Grusin - 5:49
7 - Rhythm Dance - Sharpe - 6:03
8 - Let the Rhythm Take You High - Sharpe, Taylor - 5:29
9 - D'Ja - Grusin - 6:06
10 - Brazilian Dawn - Sharpe - 6:04
Exact Audio Copy V0.99 prebeta 4 from 23. January 2008
EAC extraction logfile from 3. March 2008, 14:00
Bill Sharpe / State of the Heart
Used drive : TOSHIBA DVDW/HD TS-L802A Adapter: 0 ID: 0
Read mode : Secure
Utilize accurate stream : Yes
Defeat audio cache : Yes
Make use of C2 pointers : No
Read offset correction : 696
Overread into Lead-In and Lead-Out : No
Fill up missing offset samples with silence : Yes
Delete leading and trailing silent blocks : No
Null samples used in CRC calculations : Yes
Used interface : Native Win32 interface for Win NT & 2000
Used output format : Internal WAV Routines
Sample format : 44.100 Hz; 16 Bit; Stereo
TOC of the extracted CD
Track | Start | Length | Start sector | End sector
---------------------------------------------------------
1 | 0:00.32 | 4:53.73 | 32 | 22079
2 | 4:54.30 | 4:29.55 | 22080 | 42309
3 | 9:24.10 | 5:58.22 | 42310 | 69181
4 | 15:22.32 | 4:30.23 | 69182 | 89454
5 | 19:52.55 | 4:53.70 | 89455 | 111499
6 | 24:46.50 | 5:49.57 | 111500 | 137731
7 | 30:36.32 | 6:03.48 | 137732 | 165004
8 | 36:40.05 | 5:29.05 | 165005 | 189684
9 | 42:09.10 | 6:06.00 | 189685 | 217134
10 | 48:15.10 | 6:04.45 | 217135 | 244479
Range status and errors
Selected range
Filename K:Bill Sharpe - State of the Heart.wav
Peak level 94.9 %
Range quality 100.0 %
Copy CRC 7338B864
Copy OK
No errors occurred
End of status report
This album was recorded in Los Angeles in 1997 featuring some of Bill’s favourite musicians. Co-produced by legendary pianist Don Grusin it contains a selection of tunes mainly composed by Bill but a few by Mr Grusin. Featured musicians are:- Alex Acuna, Abe Laboriel, Paulinho da Costa, Carlos Rios, Brian Bromberg and singers Jeffrey Osborne and Pauline Wilson.
Lossless Links
HOTFILE.com:
SHARINGMATRIX.com:
UPLOADED.to:
MP3 Links
| |




Alternative download links

hotfile.com part1 hotfile.com part2 sharingmatrix.com part1 sharingmatrix.com part2 uploaded.to part1 uploaded.to part2 HOTFILE SHARINGMATRIX UPLOADED

Related MP3 FLAC to Bill Sharpe - State Of The Heart (1999)
Feedback
All rights reserved.
WEBBG.com © 2000-2018