Black Sabbath - Black Box (2004) 8CD
MP3 FLAC WMA APE HD

Black Sabbath - Black Box (2004) 8CD

Artist: Black Sabbath
Title: Black Box
Year Of Release: 2004
Label: WB,Rhino[ R2 73923]
Genre: Hard Rock, Heavy Metal
Quality: FLAC (image + .cue,log,scans)
Total Time: 5:36:45
Total Size: 2,70 GB(+3%)
WebSite:

Tracklist
Dics 1:
1. Black Sabbath
2. The Wizard
3. Wasp / Behind the Wall of Sleep / Bassically / N.I.B.
4. Wicked World
5. A Bit of Finger / Sleeping Village / Warning
6. Evil Woman
Dics 2:
1. War Pigs / Luke's Wall
2. Paranoid
3. Planet Caravan
4. Iron Man
5. Electric Funeral
6. Hand of Doom
7. Rat Salad
8. Jack the Stripper / Fairies Wear Boots
Dics 3:
1. Sweet Leaf
2. After Forever
3. Embryo
4. Children of the Grave
5. Orchid
6. Lord of this World
7. Solitude
8. Into the Void
Dics 4:
1. Wheels of Confusion / The Straightener
2. Tomorrow's Dream
3. Changes
4. F#
5. Supernaut
6. Snowblind
7. Cornucopia
8. Laguna Sunrise
9. St. Vitus' Dance
10. Under the Sun / Every Day Comes & Goesv
Dics 5:
1. Sabbath, Bloody Sabbath
2. A National Acrobat
3. Fluff
4. Sabbra Cadabra
5. Killing Yourself to Live
6. Who are You?
7. Looking for Today
8. Spiral Architect
Dics 6:
1. Hole in the Sky
2. Don't Start (Too Late)
3. Symptom of the Universe
4. Megalomania
5. The Thrill of it All
6. Supertzar
7. Am I Going Insane (Radio)
8. The Writ
9. Blow on a Jug
Dics 7:
1. Back Street Kids
2. You Won't Change Me
3. It's Alright
4. Gypsy
5. All Moving Parts (Stand Still)
6. Rock 'N' Roll Doctor
7. She's Gone
8. Dirty Women
Dics 8:
1. Never Say Die
2. Johnny Blade
3. Junior's Eyes
4. A Hard Road
5. Shock Wave
6. Air Dance
7. Over To You
8. Breakout
9. Swinging the Chain
Personnel:
Tony Iommi - Lead Guitar, Keyboards
Geezer Butler - Bass
Ozzy Osbourne - Vocals
Bill Ward - Drums
Don Airey - Keyboards (on Disc 8)
Jezz Wodruffe - Keyboards (on Disc 7)
Remastered by Hersch & Bill Ingot
This deluxe set gathers the entire original Black Sabbath recorded legacy: all eight albums in one beautiful box. Each classic album features newly remastered sound and comes packaged in an individual digipak recreating the original album art. A bonus DVD includes a vintage promo spot plus live clips of "Iron Man," "Paranoid," and "Blue Suede Shoes." An 80-page book features rare archival photos, two-part liner notes, complete lyrics, and an extensive timeline.
Exact Audio Copy V0.99 prebeta 4 from 23. January 2008
EAC extraction logfile from 24. April 2008, 20:21
Black Sabbath / Black Sabbath
Used drive : Optiarc DVD RW AD-7200S Adapter: 2 ID: 0
Read mode : Secure
Utilize accurate stream : Yes
Defeat audio cache : Yes
Make use of C2 pointers : No
Read offset correction : 48
Overread into Lead-In and Lead-Out : No
Fill up missing offset samples with silence : Yes
Delete leading and trailing silent blocks : No
Null samples used in CRC calculations : Yes
Used interface : Installed external ASPI interface
Used output format : Internal WAV Routines
Sample format : 44.100 Hz; 16 Bit; Stereo
TOC of the extracted CD
Track | Start | Length | Start sector | End sector
---------------------------------------------------------
1 | 0:00.00 | 6:18.71 | 0 | 28420
2 | 6:18.71 | 4:23.42 | 28421 | 48187
3 | 10:42.38 | 9:44.42 | 48188 | 92029
4 | 20:27.05 | 4:46.65 | 92030 | 113544
5 | 25:13.70 | 14:16.03 | 113545 | 177747
6 | 39:29.73 | 3:23.09 | 177748 | 192981
Range status and errors
Selected range
Filename D:musicBlack Sabbath - Black Sabbath.wav
Peak level 100.0 %
Range quality 100.0 %
Copy CRC 09969E0C
Copy OK
No errors occurred

AccurateRip summary

Track 1 accurately ripped (confidence 31) [01FCB785]
Track 2 accurately ripped (confidence 31) [E08B278E]
Track 3 accurately ripped (confidence 32) [7168BC79]
Track 4 accurately ripped (confidence 30) [DE4E4092]
Track 5 accurately ripped (confidence 30) [4FE0D887]
Track 6 accurately ripped (confidence 31) [672C8375]

All tracks accurately ripped
End of status report
Exact Audio Copy V0.99 prebeta 4 from 23. January 2008
EAC extraction logfile from 24. April 2008, 20:07
Black Sabbath / Paranoid
Used drive : Optiarc DVD RW AD-7200S Adapter: 2 ID: 0
Read mode : Secure
Utilize accurate stream : Yes
Defeat audio cache : Yes
Make use of C2 pointers : No
Read offset correction : 48
Overread into Lead-In and Lead-Out : No
Fill up missing offset samples with silence : Yes
Delete leading and trailing silent blocks : No
Null samples used in CRC calculations : Yes
Used interface : Installed external ASPI interface
Used output format : Internal WAV Routines
Sample format : 44.100 Hz; 16 Bit; Stereo
TOC of the extracted CD
Track | Start | Length | Start sector | End sector
---------------------------------------------------------
1 | 0:00.00 | 7:57.26 | 0 | 35800
2 | 7:57.26 | 2:52.37 | 35801 | 48737
3 | 10:49.63 | 4:32.02 | 48738 | 69139
4 | 15:21.65 | 5:58.36 | 69140 | 96025
5 | 21:20.26 | 4:52.59 | 96026 | 117984
6 | 26:13.10 | 7:07.64 | 117985 | 150073
7 | 33:20.74 | 2:31.19 | 150074 | 161417
8 | 35:52.18 | 6:15.03 | 161418 | 189545
Range status and errors
Selected range
Filename D:musicBlack Sabbath - Paranoid.wav
Peak level 97.2 %
Range quality 100.0 %
Copy CRC 8B7B5848
Copy OK
No errors occurred

AccurateRip summary

Track 1 accurately ripped (confidence 31) [C40F9402]
Track 2 accurately ripped (confidence 32) [587B8E2A]
Track 3 accurately ripped (confidence 30) [5313534D]
Track 4 accurately ripped (confidence 31) [3DFD61E8]
Track 5 accurately ripped (confidence 30) [C33BD82B]
Track 6 accurately ripped (confidence 29) [7DAE9BB4]
Track 7 accurately ripped (confidence 29) [39756EB4]
Track 8 accurately ripped (confidence 31) [D9DAF327]

All tracks accurately ripped
End of status report
Exact Audio Copy V0.99 prebeta 4 from 23. January 2008
EAC extraction logfile from 24. April 2008, 20:33
Black Sabbath / Master Of Reality
Used drive : Optiarc DVD RW AD-7200S Adapter: 2 ID: 0
Read mode : Secure
Utilize accurate stream : Yes
Defeat audio cache : Yes
Make use of C2 pointers : No
Read offset correction : 48
Overread into Lead-In and Lead-Out : No
Fill up missing offset samples with silence : Yes
Delete leading and trailing silent blocks : No
Null samples used in CRC calculations : Yes
Used interface : Installed external ASPI interface
Used output format : Internal WAV Routines
Sample format : 44.100 Hz; 16 Bit; Stereo
TOC of the extracted CD
Track | Start | Length | Start sector | End sector
---------------------------------------------------------
1 | 0:00.00 | 5:05.04 | 0 | 22878
2 | 5:05.04 | 5:27.17 | 22879 | 47420
3 | 10:32.21 | 0:28.12 | 47421 | 49532
4 | 11:00.33 | 5:17.53 | 49533 | 73360
5 | 16:18.11 | 1:30.70 | 73361 | 80180
6 | 17:49.06 | 5:26.43 | 80181 | 104673
7 | 23:15.49 | 5:02.22 | 104674 | 127345
8 | 28:17.71 | 6:13.21 | 127346 | 155341
Range status and errors
Selected range
Filename D:musicBlack Sabbath - Master Of Reality.wav
Peak level 97.2 %
Range quality 100.0 %
Copy CRC E28DE6C8
Copy OK
No errors occurred

AccurateRip summary

Track 1 cannot be verified as accurate (confidence 31) [2DEEE960], AccurateRip returned [88863A52]
Track 2 accurately ripped (confidence 30) [70983F58]
Track 3 accurately ripped (confidence 29) [4AE02A95]
Track 4 accurately ripped (confidence 30) [2D97F1DB]
Track 5 accurately ripped (confidence 29) [DCDAFC33]
Track 6 accurately ripped (confidence 30) [4F38D109]
Track 7 accurately ripped (confidence 28) [294025AB]
Track 8 accurately ripped (confidence 31) [11BD733D]

7 track(s) accurately ripped
1 track(s) could not be verified as accurate
Some tracks could not be verified as accurate
End of status report
Exact Audio Copy V0.99 prebeta 4 from 23. January 2008
EAC extraction logfile from 24. April 2008, 21:01
Black Sabbath / Vol.4
Used drive : Optiarc DVD RW AD-7200S Adapter: 2 ID: 0
Read mode : Secure
Utilize accurate stream : Yes
Defeat audio cache : Yes
Make use of C2 pointers : No
Read offset correction : 48
Overread into Lead-In and Lead-Out : No
Fill up missing offset samples with silence : Yes
Delete leading and trailing silent blocks : No
Null samples used in CRC calculations : Yes
Used interface : Installed external ASPI interface
Used output format : Internal WAV Routines
Sample format : 44.100 Hz; 16 Bit; Stereo
TOC of the extracted CD
Track | Start | Length | Start sector | End sector
---------------------------------------------------------
1 | 0:00.00 | 8:01.49 | 0 | 36123
2 | 8:01.49 | 3:11.41 | 36124 | 50489
3 | 11:13.15 | 4:44.51 | 50490 | 71840
4 | 15:57.66 | 1:43.38 | 71841 | 79603
5 | 17:41.29 | 4:49.45 | 79604 | 101323
6 | 22:30.74 | 5:33.18 | 101324 | 126316
7 | 28:04.17 | 3:54.45 | 126317 | 143911
8 | 31:58.62 | 2:55.58 | 143912 | 157094
9 | 34:54.45 | 2:29.64 | 157095 | 168333
10 | 37:24.34 | 5:52.55 | 168334 | 194788
Range status and errors
Selected range
Filename D:musicBlack Sabbath - Vol.4.wav
Peak level 97.5 %
Range quality 99.9 %
Copy CRC 33387605
Copy OK
No errors occurred

AccurateRip summary

Track 1 accurately ripped (confidence 21) [31042CFF]
Track 2 accurately ripped (confidence 22) [76996D41]
Track 3 accurately ripped (confidence 22) [4E1F9603]
Track 4 accurately ripped (confidence 21) [094FB9CE]
Track 5 accurately ripped (confidence 22) [484261BE]
Track 6 accurately ripped (confidence 22) [D2871212]
Track 7 accurately ripped (confidence 21) [63715E82]
Track 8 accurately ripped (confidence 22) [D3959EE0]
Track 9 accurately ripped (confidence 21) [B25FCFA2]
Track 10 accurately ripped (confidence 21) [660B0056]

All tracks accurately ripped
End of status report
Exact Audio Copy V0.99 prebeta 4 from 23. January 2008
EAC extraction logfile from 24. April 2008, 21:15
Black Sabbath / Sabbath Bloody Sabbath
Used drive : Optiarc DVD RW AD-7200S Adapter: 2 ID: 0
Read mode : Secure
Utilize accurate stream : Yes
Defeat audio cache : Yes
Make use of C2 pointers : No
Read offset correction : 48
Overread into Lead-In and Lead-Out : No
Fill up missing offset samples with silence : Yes
Delete leading and trailing silent blocks : No
Null samples used in CRC calculations : Yes
Used interface : Installed external ASPI interface
Used output format : Internal WAV Routines
Sample format : 44.100 Hz; 16 Bit; Stereo
TOC of the extracted CD
Track | Start | Length | Start sector | End sector
---------------------------------------------------------
1 | 0:00.00 | 5:45.02 | 0 | 25876
2 | 5:45.02 | 6:16.02 | 25877 | 54078
3 | 12:01.04 | 4:11.63 | 54079 | 72966
4 | 16:12.67 | 5:59.10 | 72967 | 99901
5 | 22:12.02 | 5:40.71 | 99902 | 125472
6 | 27:52.73 | 4:11.18 | 125473 | 144315
7 | 32:04.16 | 5:06.07 | 144316 | 167272
8 | 37:10.23 | 5:29.16 | 167273 | 191963
Range status and errors
Selected range
Filename D:musicBlack Sabbath - Sabbath Bloody Sabbath.wav
Peak level 98.8 %
Range quality 100.0 %
Copy CRC 8F298344
Copy OK
No errors occurred

AccurateRip summary

Track 1 accurately ripped (confidence 16) [A63C7C5E]
Track 2 accurately ripped (confidence 15) [D080CE2D]
Track 3 accurately ripped (confidence 16) [48C7A798]
Track 4 accurately ripped (confidence 16) [6FE64CAB]
Track 5 accurately ripped (confidence 15) [7D3B2B29]
Track 6 accurately ripped (confidence 15) [17E4F952]
Track 7 accurately ripped (confidence 15) [CC60087D]
Track 8 accurately ripped (confidence 15) [C1D5E864]

All tracks accurately ripped
End of status report
Exact Audio Copy V0.99 prebeta 4 from 23. January 2008
EAC extraction logfile from 24. April 2008, 21:29
Black Sabbath / Sabotage
Used drive : Optiarc DVD RW AD-7200S Adapter: 2 ID: 0
Read mode : Secure
Utilize accurate stream : Yes
Defeat audio cache : Yes
Make use of C2 pointers : No
Read offset correction : 48
Overread into Lead-In and Lead-Out : No
Fill up missing offset samples with silence : Yes
Delete leading and trailing silent blocks : No
Null samples used in CRC calculations : Yes
Used interface : Installed external ASPI interface
Used output format : Internal WAV Routines
Sample format : 44.100 Hz; 16 Bit; Stereo
TOC of the extracted CD
Track | Start | Length | Start sector | End sector
---------------------------------------------------------
1 | 0:00.00 | 3:59.39 | 0 | 17963
2 | 3:59.39 | 0:49.31 | 17964 | 21669
3 | 4:48.70 | 6:29.06 | 21670 | 50850
4 | 11:18.01 | 9:46.00 | 50851 | 94800
5 | 21:04.01 | 5:56.28 | 94801 | 121528
6 | 27:00.29 | 3:44.16 | 121529 | 138344
7 | 30:44.45 | 4:16.43 | 138345 | 157587
8 | 35:01.13 | 8:45.53 | 157588 | 197015
Range status and errors
Selected range
Filename D:musicBlack Sabbath - Sabotage.wav
Peak level 98.1 %
Range quality 99.9 %
Copy CRC 4882D13E
Copy OK
No errors occurred

AccurateRip summary

Track 1 accurately ripped (confidence 21) [F35ECE1B]
Track 2 accurately ripped (confidence 20) [AEEA2FE5]
Track 3 accurately ripped (confidence 21) [0C122EC0]
Track 4 accurately ripped (confidence 20) [B737597D]
Track 5 accurately ripped (confidence 20) [D9C792C7]
Track 6 accurately ripped (confidence 20) [148A4866]
Track 7 accurately ripped (confidence 21) [D4ECF089]
Track 8 accurately ripped (confidence 20) [9BCBF0BE]

All tracks accurately ripped
End of status report
Exact Audio Copy V0.99 prebeta 4 from 23. January 2008
EAC extraction logfile from 24. April 2008, 21:41
Black Sabbath / Technical Ecstacy
Used drive : Optiarc DVD RW AD-7200S Adapter: 2 ID: 0
Read mode : Secure
Utilize accurate stream : Yes
Defeat audio cache : Yes
Make use of C2 pointers : No
Read offset correction : 48
Overread into Lead-In and Lead-Out : No
Fill up missing offset samples with silence : Yes
Delete leading and trailing silent blocks : No
Null samples used in CRC calculations : Yes
Used interface : Installed external ASPI interface
Used output format : Internal WAV Routines
Sample format : 44.100 Hz; 16 Bit; Stereo
TOC of the extracted CD
Track | Start | Length | Start sector | End sector
---------------------------------------------------------
1 | 0:00.00 | 3:47.44 | 0 | 17068
2 | 3:47.44 | 6:42.35 | 17069 | 47253
3 | 10:30.04 | 4:04.57 | 47254 | 65610
4 | 14:34.61 | 5:14.54 | 65611 | 89214
5 | 19:49.40 | 5:07.29 | 89215 | 112268
6 | 24:56.69 | 3:30.54 | 112269 | 128072
7 | 28:27.48 | 4:58.59 | 128073 | 150481
8 | 33:26.32 | 7:13.41 | 150482 | 182997
Range status and errors
Selected range
Filename D:musicBlack Sabbath - Technical Ecstacy.wav
Peak level 98.8 %
Range quality 100.0 %
Copy CRC 26249D59
Copy OK
No errors occurred

AccurateRip summary

Track 1 accurately ripped (confidence 23) [F8F6DDE5]
Track 2 accurately ripped (confidence 23) [EA691900]
Track 3 accurately ripped (confidence 22) [E1A1EC98]
Track 4 accurately ripped (confidence 23) [857934AF]
Track 5 accurately ripped (confidence 23) [5B105209]
Track 6 accurately ripped (confidence 24) [D5D8D0CF]
Track 7 accurately ripped (confidence 23) [CC93F3CA]
Track 8 accurately ripped (confidence 24) [4302880A]

All tracks accurately ripped
End of status report
Exact Audio Copy V0.99 prebeta 4 from 23. January 2008
EAC extraction logfile from 24. April 2008, 21:55
Black Sabbath / Never Say Die!
Used drive : Optiarc DVD RW AD-7200S Adapter: 2 ID: 0
Read mode : Secure
Utilize accurate stream : Yes
Defeat audio cache : Yes
Make use of C2 pointers : No
Read offset correction : 48
Overread into Lead-In and Lead-Out : No
Fill up missing offset samples with silence : Yes
Delete leading and trailing silent blocks : No
Null samples used in CRC calculations : Yes
Used interface : Installed external ASPI interface
Used output format : Internal WAV Routines
Sample format : 44.100 Hz; 16 Bit; Stereo
TOC of the extracted CD
Track | Start | Length | Start sector | End sector
---------------------------------------------------------
1 | 0:00.00 | 3:49.65 | 0 | 17239
2 | 3:49.65 | 6:28.18 | 17240 | 46357
3 | 10:18.08 | 6:42.57 | 46358 | 76564
4 | 17:00.65 | 6:04.59 | 76565 | 103923
5 | 23:05.49 | 5:15.44 | 103924 | 127592
6 | 28:21.18 | 5:17.04 | 127593 | 151371
7 | 33:38.22 | 5:22.60 | 151372 | 175581
8 | 39:01.07 | 2:35.16 | 175582 | 187222
9 | 41:36.23 | 4:17.30 | 187223 | 206527
Range status and errors
Selected range
Filename D:musicBlack Sabbath - Never Say Die!.wav
Peak level 98.8 %
Range quality 99.9 %
Copy CRC 17E4D65B
Copy OK
No errors occurred

AccurateRip summary

Track 1 accurately ripped (confidence 15) [81322C53]
Track 2 accurately ripped (confidence 15) [DD820100]
Track 3 accurately ripped (confidence 15) [55C2F2D7]
Track 4 accurately ripped (confidence 15) [D684F9A7]
Track 5 accurately ripped (confidence 15) [ED57D538]
Track 6 accurately ripped (confidence 14) [1D5B9D72]
Track 7 accurately ripped (confidence 15) [C1799B13]
Track 8 accurately ripped (confidence 17) [E69F3AD2]
Track 9 accurately ripped (confidence 13) [8053B06D]

All tracks accurately ripped
End of status report





Alternative download links

Turbobit

Related MP3 FLAC to Black Sabbath - Black Box (2004) 8CD
Feedback
All rights reserved.
WEBBG.com © 2000-2018