Ikon - Signs (2007)
MP3 FLAC WMA APE HD

Ikon - Signs (2007)

Free download links


Ikon - Signs (2007) .zip
MP3 version ZIP archive

1607 downloads at 30 mb/s

Ikon - Signs (2007) .zip
FLAC/APE version ZIP archive

943 downloads at 22 mb/s
Artist: Ikon
Title Of Album: Signs
Year Of Release: 27th November 2007
Label:
Genre: Electronic | Downtempo | Nu Jazz
Quality: FLAC (IMG+CUE+LOG)/MP3
Bitrate: Lossless/320 kbps
Total Time: 43:32 min
Total Size: 263mb/110mb
Tracklist:
01. No Reason To Stay (Vocals by Dee Ellington)
02. Dirty Girl (Vocals by Ian Britt)
03. Signs (Vocals by Jayn Hanna)
04. Salvador
05. Retangle
06. Out Of Our Hands (Vocals & Guitar by Ian Britt)
07. Kill Tremolo (Vocals by Swati Natekar)
08. Breaking (Vocals by Dee Ellington)
09. Shimmer
10. Time Is Running Out (Vocals by Kirsty Hawkshaw)
Exact Audio Copy V0.99 prebeta 4 from 23. January 2008
Отчёт EAC об извлечении, выполненном 3. января 2009, 13:40
Ikon / Signs
Дисковод: HL-DT-STDVDRAM GSA-H62N Adapter: 2 ID: 0
Режим чтения : Достоверность
Использование точного потока : Да
Отключение кэша аудио : Да
Использование указателей C2 : Нет
Коррекция смещения при чтении : 667
Способность читать области Lead-in и Lead-out : Нет
Заполнение пропущенных сэмплов тишиной : Да
Удаление блоков с тишиной в начале и конце : Нет
При вычислениях CRC использовались нулевые сэмплы : Да
Интерфейс : Установленный внешний ASPI-интерфейс
Выходной формат : Внутренние WAV-операции
Формат сэмплов : 44.100 Гц; 16 бит; стерео
TOC извлечённого CD
Трек | Старт | Длительность | Начальный сектор | Конечный сектор
---------------------------------------------------------------------
1 | 0:00.00 | 4:41.68 | 0 | 21142
2 | 4:41.68 | 4:35.41 | 21143 | 41808
3 | 9:17.34 | 4:12.66 | 41809 | 60774
4 | 13:30.25 | 5:01.40 | 60775 | 83389
5 | 18:31.65 | 4:08.23 | 83390 | 102012
6 | 22:40.13 | 5:13.02 | 102013 | 125489
7 | 27:53.15 | 4:06.72 | 125490 | 144011
8 | 32:00.12 | 4:34.71 | 144012 | 164632
9 | 36:35.08 | 3:38.39 | 164633 | 181021
10 | 40:13.47 | 3:18.63 | 181022 | 195934
Характеристики диапазона извлечения и сообщения об ошибках
Выбранный диапазон
Имя файла E:MusicIkonIkon - Signs.wav
Пиковый уровень 98.0 %
Качество диапазона 99.9 %
CRC копии 207C1D5D
Копирование... OK
Ошибок не произошло

AccurateRip: сводка

Трек 1 точное извлечение (доверие 2) [43E57513]
Трек 2 точное извлечение (доверие 2) [036D6029]
Трек 3 точное извлечение (доверие 2) [775096F9]
Трек 4 точное извлечение (доверие 2) [392B788F]
Трек 5 точное извлечение (доверие 2) [B367BDE9]
Трек 6 точное извлечение (доверие 2) [02AC0C5A]
Трек 7 точное извлечение (доверие 2) [8B928FC0]
Трек 8 точное извлечение (доверие 2) [990C19D4]
Трек 9 точное извлечение (доверие 2) [4D8FC29C]
Трек 10 точное извлечение (доверие 2) [EE814A7B]

Ikon - No Reason To Stay
Ikon - Salvador
Signs marks the triumphant return of leftfield electronic band IKON. A mixture of dubby electronica and blissful vocals this promises to put them on a par with their major label contemporaries.Rewind 3 years and everything is going right for the band.
Download
If links are broken please send me PM



Alternative download links

Uploaded

Related MP3 FLAC to Ikon - Signs (2007)
Feedback
All rights reserved.
WEBBG.com © 2000-2018