MSG - Now Or Never (2010)
MP3 FLAC WMA APE HD

MSG - Now Or Never (2010)

Artist: MSG
Title Of Album: Now Or Never
Year Of Release: 2010
Label: Gone Broke Records
Genre: Jazz-Rock, Fusion
Quality: APE (image+.cue) + log
Bitrate: Lossless
Total Time: 01:06:09
Total Size: 396 Mb
Progressive Guitarist Matt Smith , Virtuoso Drummer Jeff Sipe, and The incomparable Reed Mathis on bass .This is a melting pot of musical style's not to mention smoldering playing. MSG is a Buffet Of Sounds.
Tracklist:
01.Hospital Funk
02.Sympathizen
03.Wolfman
04.Crooked Line
05.Children
06.Sleepless Nights
07.Guitarsmith Blues
08.Pull The Shades Down Tight
09.Atari Rag
10.Ornette
11.Joe Souirrel
Exact Audio Copy V0.99 prebeta 4 from 23. January 2008
Отчёт EAC об извлечении, выполненном 30. мая 2011, 20:28
MSG / Now Or Never
Дисковод: _NEC DVD_RW ND-2510A Adapter: 1 ID: 0
Режим чтения : Достоверность
Использование точного потока : Да
Отключение кэша аудио : Да
Использование указателей C2 : Нет
Коррекция смещения при чтении : 48
Способность читать области Lead-in и Lead-out : Нет
Заполнение пропущенных сэмплов тишиной : Да
Удаление блоков с тишиной в начале и конце : Нет
При вычислениях CRC использовались нулевые сэмплы : Да
Интерфейс : Встроенный Win32-интерфейс для Win NT/2000
Выходной формат : Внутренние WAV-операции
Формат сэмплов : 44.100 Гц; 16 бит; стерео
TOC извлечённого CD
Трек | Старт | Длительность | Начальный сектор | Конечный сектор
---------------------------------------------------------------------
1 | 0:00.00 | 7:05.26 | 0 | 31900
2 | 7:05.26 | 8:39.57 | 31901 | 70882
3 | 15:45.08 | 6:06.29 | 70883 | 98361
4 | 21:51.37 | 5:40.49 | 98362 | 123910
5 | 27:32.11 | 7:00.30 | 123911 | 155440
6 | 34:32.41 | 4:49.05 | 155441 | 177120
7 | 39:21.46 | 8:08.48 | 177121 | 213768
8 | 47:30.19 | 3:03.28 | 213769 | 227521
9 | 50:33.47 | 7:23.66 | 227522 | 260812
10 | 57:57.38 | 2:46.63 | 260813 | 273325
11 | 60:44.26 | 5:24.13 | 273326 | 297638
Характеристики диапазона извлечения и сообщения об ошибках
Выбранный диапазон
Имя файла E:ПРОЕКТMSG-Now Or Never 2010MSG - Now Or Never.wav
Пиковый уровень 99.9 %
Качество диапазона 100.0 %
CRC теста 08C4DD6F
CRC копии 08C4DD6F
Копирование... OK
Ошибок не произошло
AccurateRip: сводка
Трек 1 нет в базе данных
Трек 2 нет в базе данных
Трек 3 нет в базе данных
Трек 4 нет в базе данных
Трек 5 нет в базе данных
Трек 6 нет в базе данных
Трек 7 нет в базе данных
Трек 8 нет в базе данных
Трек 9 нет в базе данных
Трек 10 нет в базе данных
Трек 11 нет в базе данных
Ни одного трека нет в базе AccurateRip
Конец отчёта
FileSonic
Wupload



Alternative download links

DOWNLOAD

Related MP3 FLAC to MSG - Now Or Never (2010)
Feedback
All rights reserved.
WEBBG.com © 2000-2018