The Fins - Bluesprint (2000)
MP3 FLAC WMA APE HD

The Fins - Bluesprint (2000)

  • Genre: Music, Blues, FLAC / APE
  • Formats: MP3 FLAC WMA HD APE
  • Album Size: 1479 mb.
  • Archive: ZIP RAR
Artist: The Fins
Title Of Album: Bluesprint
Year Of Release: 2000
Genre: Blues,Swing
Quality: APE (*.ape)
Bitrate: lossless
Total Time: 57:05
Total Size: 382 MB
Tracklist:
01. You Upset Me Baby [0:03:27.50]
02. The Fins / Two Bones And A Pick [0:04:46.46]
03. Fast Food Annie [0:05:35.01]
04. Lets Have A Natural Ball [0:03:16.09]
05. I Love The Woman [0:08:18.21]
06. Peter Gunn [0:02:37.46]
07. On My Way [0:03:36.97]
08. Hot Rod [0:02:50.01]
09. I Got The Feelin' [0:03:24.50]
10. Strollin' With Bone [0:02:34.65]
11. Fins / $100 Bill [0:02:23.52]
12. Frosty [0:04:40.53]
13. It Should Have Been Me [0:03:28.78]
14. Low Rider [0:03:32.52]
15. Okie Dokie Stomp [0:02:32.89]
Exact Audio Copy V0.99 prebeta 4 from 23. January 2008
EAC extraction logfile from 14. February 2011, 16:13
The Fins / Bluesprint
Used drive : Optiarc DVD RW AD-7173A Adapter: 3 ID: 0
Read mode : Secure
Utilize accurate stream : Yes
Defeat audio cache : Yes
Make use of C2 pointers : No
Read offset correction : 48
Overread into Lead-In and Lead-Out : No
Fill up missing offset samples with silence : Yes
Delete leading and trailing silent blocks : No
Null samples used in CRC calculations : Yes
Used interface : Native Win32 interface for Win NT & 2000
Used output format : Internal WAV Routines
Sample format : 44.100 Hz; 16 Bit; Stereo
TOC of the extracted CD
Track | Start | Length | Start sector | End sector
---------------------------------------------------------
1 | 0:00.00 | 3:27.38 | 0 | 15562
2 | 3:27.38 | 4:46.35 | 15563 | 37047
3 | 8:13.73 | 5:35.01 | 37048 | 62173
4 | 13:48.74 | 3:16.07 | 62174 | 76880
5 | 17:05.06 | 8:18.16 | 76881 | 114246
6 | 25:23.22 | 2:37.35 | 114247 | 126056
7 | 28:00.57 | 3:36.73 | 126057 | 142329
8 | 31:37.55 | 2:50.01 | 142330 | 155080
9 | 34:27.56 | 3:24.38 | 155081 | 170418
10 | 37:52.19 | 2:34.49 | 170419 | 182017
11 | 40:26.68 | 2:23.39 | 182018 | 192781
12 | 42:50.32 | 4:40.40 | 192782 | 213821
13 | 47:30.72 | 3:28.59 | 213822 | 229480
14 | 50:59.56 | 3:32.39 | 229481 | 245419
15 | 54:32.20 | 2:32.67 | 245420 | 256886
Range status and errors
Selected range
Filename D:КОЛЛЕКЦИЯ 10Новая папкаThe Fins - Bluesprint.wav
Peak level 100.0 %
Range quality 100.0 %
Test CRC 0A52DBF4
Copy CRC 0A52DBF4
Copy OK
No errors occurred
AccurateRip summary
Track 1 not present in database
Track 2 not present in database
Track 3 not present in database
Track 4 not present in database
Track 5 not present in database
Track 6 not present in database
Track 7 not present in database
Track 8 not present in database
Track 9 not present in database
Track 10 not present in database
Track 11 not present in database
Track 12 not present in database
Track 13 not present in database
Track 14 not present in database
Track 15 not present in database
None of the tracks are present in the AccurateRip database
End of status report




Alternative download links

turbobit.net

Related MP3 FLAC to The Fins - Bluesprint (2000)
Feedback
All rights reserved.
WEBBG.com © 2000-2018