Gary Primich - My Pleasure (1992)
MP3 FLAC WMA APE HD

Gary Primich - My Pleasure (1992)

  • Genre: Music, Blues, FLAC / APE
  • Formats: MP3 FLAC WMA HD APE
  • Album Size: 1592 mb.
  • Archive: ZIP RAR
Artist: Gary Primich
Title Of Album: My Pleasure
Year Of Release: 1992
Label: Amazing Records
Genre: Blues, Harp
Quality: APE (image+.cue) + log
Bitrate: Lossless
Total Time: 50:55
Total Size: 305 Mb
Gary Primich (April 20, 1958 – September 23, 2007) was an American blues harmonica player, singer, guitarist and songwriter. He is best known for his 1995 album, Mr. Freeze.
Tracklist:
01. Boogie-Woogie Baby [0:03:24.02]
02. Stonebroke [0:03:19.66]
03. Walkin' The Poodle [0:03:46.44]
04. Icy Chill [0:04:44.22]
05. Lonesome Stranger [0:04:26.20]
06. Give A Little More [0:03:49.93]
07. I Want Somebody To Love [0:02:32.10]
08. Bad Dog [0:04:16.46]
09. Hush Your Mouth [0:02:40.93]
10. Money Habit [0:04:14.29]
11. I Love No More [0:02:41.24]
12. Last Call [0:04:16.06]
13. #9 Train [0:03:09.49]
14. September Song [0:03:34.26]
Exact Audio Copy V0.99 prebeta 4 from 23. January 2008
Отчёт EAC об извлечении, выполненном 18. ноября 2009, 13:53
Gary Primich / My Pleasure
Дисковод: PLEXTOR DVDR PX-820A Adapter: 3 ID: 1
Режим чтения : Достоверность
Использование точного потока : Да
Отключение кэша аудио : Да
Использование указателей C2 : Нет
Коррекция смещения при чтении : 48
Способность читать области Lead-in и Lead-out : Нет
Заполнение пропущенных сэмплов тишиной : Да
Удаление блоков с тишиной в начале и конце : Нет
При вычислениях CRC использовались нулевые сэмплы : Да
Интерфейс : Встроенный Win32-интерфейс для Win NT/2000
Выходной формат : Внутренние WAV-операции
Формат сэмплов : 44.100 Гц; 16 бит; стерео
TOC извлечённого CD
Трек | Старт | Длительность | Начальный сектор | Конечный сектор
---------------------------------------------------------------------
1 | 0:00.00 | 3:24.02 | 0 | 15301
2 | 3:24.02 | 3:19.50 | 15302 | 30276
3 | 6:43.52 | 3:46.33 | 30277 | 47259
4 | 10:30.10 | 4:44.17 | 47260 | 68576
5 | 15:14.27 | 4:26.15 | 68577 | 88541
6 | 19:40.42 | 3:49.70 | 88542 | 105786
7 | 23:30.37 | 2:32.08 | 105787 | 117194
8 | 26:02.45 | 4:16.35 | 117195 | 136429
9 | 30:19.05 | 2:40.70 | 136430 | 148499
10 | 33:00.00 | 4:14.22 | 148500 | 167571
11 | 37:14.22 | 2:41.18 | 167572 | 179664
12 | 39:55.40 | 4:16.05 | 179665 | 198869
13 | 44:11.45 | 3:09.37 | 198870 | 213081
14 | 47:21.07 | 3:34.20 | 213082 | 229151
Характеристики диапазона извлечения и сообщения об ошибках
Выбранный диапазон
Имя файла D:Муз раздача 1GARY PRIMICHGary Primich - My Pleasure.wav
Пиковый уровень 100.0 %
Качество диапазона 100.0 %
CRC копии A2C1DFD0
Копирование... OK
Ошибок не произошло
AccurateRip: сводка
Трек 1 точное извлечение (доверие 3) [C5958792]
Трек 2 точное извлечение (доверие 3) [1D4D566D]
Трек 3 точное извлечение (доверие 3) [86E864A9]
Трек 4 точное извлечение (доверие 3) [D6EE3780]
Трек 5 точное извлечение (доверие 3) [95557018]
Трек 6 точное извлечение (доверие 3) [38CB77CF]
Трек 7 точное извлечение (доверие 3) [901073A9]
Трек 8 точное извлечение (доверие 3) [4ED5E4C1]
Трек 9 точное извлечение (доверие 3) [CB1AA895]
Трек 10 точное извлечение (доверие 3) [CA3396BD]
Трек 11 точное извлечение (доверие 3) [68D7ACDE]
Трек 12 точное извлечение (доверие 3) [7D8CA551]
Трек 13 точное извлечение (доверие 3) [FBD5300F]
Трек 14 точное извлечение (доверие 3) [B3AEC097]
Все треки извлечены точно
Конец отчёта
FileSonic
Wupload



Alternative download links

DOWNLOAD

Related MP3 FLAC to Gary Primich - My Pleasure (1992)
Feedback
All rights reserved.
WEBBG.com © 2000-2018