The Nighthawks - Trouble (feat. Bob Margolin) (1991)
MP3 FLAC WMA APE HD

The Nighthawks - Trouble (feat. Bob Margolin) (1991)

  • Genre: Music, Jazz, FLAC / APE
  • Formats: MP3 FLAC WMA HD APE
  • Album Size: 1667 mb.
  • Archive: ZIP RAR
Artist: The Nighthawks
Title Of Album: Trouble (feat. Bob Margolin)
Year Of Release: 1991
Label: Ruf Records
Genre: Modern Electric Blues/Contemporary Blues
Quality: FLAC (tracks+.cue) + log
Bitrate: Lossless
Total Time: 42:23
Total Size: 228 Mb
The Nighthawks are an American blues and roots music band, based in Washington, D.C. The Nighthawks currently are Mark Wenner (vocals and harmonica), Paul Bell (lead guitar), Johnny Castle (bass guitar), and Mark Stutso (drums). Beginning with dates in February 2010, Stutso replaced longtime drummer Pete Ragusa who announced his departure earlier in the year.
Tracklist:
1. Blind Love 4:20
2. 99 Pounds 3:59
3. T.R.O.U.B.L.E. 3:59
4. Hard Hearted Woman 3:03
5. Why Why Baby 2:15
6. I Would't Treat A Dog (The Way You Treated Me) 5:24
7. One Rock At A Time 3:18
8. Leave My Woman Alone 2:52
9. The Chicken And The Hawk (Up, Up, And Away) 3:45
10. Most Likely You Go Your Way (And I'll Go Mine) 3:50
11. Ride And Roll 2:49
Exact Audio Copy V0.99 prebeta 5 from 4. May 2009
EAC extraction logfile from 5. September 2010, 20:04
The Nighthawks / Trouble (Ruf 2001)
Used drive : ASUS DRW-24B1LT Adapter: 3 ID: 0
Read mode : Secure
Utilize accurate stream : Yes
Defeat audio cache : Yes
Make use of C2 pointers : No
Read offset correction : 6
Overread into Lead-In and Lead-Out : No
Fill up missing offset samples with silence : Yes
Delete leading and trailing silent blocks : No
Null samples used in CRC calculations : Yes
Used interface : Native Win32 interface for Win NT & 2000
Used output format : User Defined Encoder
Selected bitrate : 1024 kBit/s
Quality : High
Add ID3 tag : No
Command line compressor : C:Program FilesExact Audio CopyFLACFLAC.EXE
Additional command line options : -6 -V -T "ARTIST=%a" -T "TITLE=%t" -T "ALBUM=%g" -T "DATE=%y" -T "TRACKNUMBER=%n" -T "GENRE=%m" -T "COMMENT=%e" %s -o %d
TOC of the extracted CD
Track | Start | Length | Start sector | End sector
---------------------------------------------------------
1 | 0:00.00 | 4:20.12 | 0 | 19511
2 | 4:20.12 | 3:59.68 | 19512 | 37504
3 | 8:20.05 | 3:59.50 | 37505 | 55479
4 | 12:19.55 | 3:03.50 | 55480 | 69254
5 | 15:23.30 | 2:15.20 | 69255 | 79399
6 | 17:38.50 | 5:24.72 | 79400 | 103771
7 | 23:03.47 | 3:18.10 | 103772 | 118631
8 | 26:21.57 | 2:52.10 | 118632 | 131541
9 | 29:13.67 | 3:45.30 | 131542 | 148446
10 | 32:59.22 | 3:50.03 | 148447 | 165699
11 | 36:49.25 | 2:49.47 | 165700 | 178421
12 | 39:38.72 | 2:43.58 | 178422 | 190704
Range status and errors
Selected range
Filename D:DOWNLOADalt.binaries.sounds.lossless.bluesThe Nighthawks - TroubleThe Nighthawks - Trouble (Ruf 2001).wav
Peak level 96.1 %
Range quality 100.0 %
Copy CRC 0A777098
Copy OK
No errors occurred
AccurateRip summary
Track 1 not present in database
Track 2 not present in database
Track 3 not present in database
Track 4 not present in database
Track 5 not present in database
Track 6 not present in database
Track 7 not present in database
Track 8 not present in database
Track 9 not present in database
Track 10 not present in database
Track 11 not present in database
Track 12 not present in database
None of the tracks are present in the AccurateRip database
End of status report
FileSonic
Oron



Alternative download links

DOWNLOAD

Related MP3 FLAC to The Nighthawks - Trouble (feat. Bob Margolin) (1991)
Feedback
All rights reserved.
WEBBG.com © 2000-2018