Livin Blues - Live 75 (1975)
MP3 FLAC WMA APE HD

Livin Blues - Live 75 (1975)

Artist: Livin' Blues
Title Of Album: Live '75
Year Of Release: 1997
Label: Pseudonym Records
Genre: Blues Rock
Quality: FLAC
Bitrate: lossless
Total Time: 75:00
Total Size: 439 mb
Tracklist:
01. Black Spider Woman (Frederiksz/Oberg/Van Der Beek) 7:28
02. I'm a Rambler (Frederiksz/Oberg/Smitskamp/Van Der Beek) 7:37
03. (I'm Your) Hoochie Coochie Man (Dixon, Willie) 6:26
04. Crazy Joe (Frederiksz/Oberg) 3:16
05. I Wonder (Frederiksz/Meyes/Oberg/Smitskamp/Van Der Beek) 5:46
06. L. B. Boogie (Christiansen/La Grand/Oberg) 9:15
07. Boney Marony (Williams) 3:08
08. Rock and Roll Hoochie Koo (Derringer, Rick) 5:06
09. I'm Coming Home [Bonus] (Lamb/Oberg) 8:19
10. See My Baby Drive [Bonus] (Frederiksz/Oberg) 6:41
11. Back Stage [Bonus] (Frederiksz/Meyes) 6:18
12. Boogie Woogie Woman [Bonus] (Pulin) 3:18
13. Richochet [Bonus] (Driessen/Frederiksz/Meyes/Oberg/Smitskamp) 2:16
Exact Audio Copy V0.99 prebeta 5 from 4. May 2009
Отчёт EAC об извлечении, выполненном 6. июня 2009, 19:50
Livin' Blues / Live '75
Дисковод: _NEC DVD_RW ND-3540A Adapter: 2 ID: 0
Режим чтения : Достоверность
Использование точного потока : Да
Отключение кэша аудио : Да
Использование указателей C2 : Нет
Коррекция смещения при чтении : 48
Способность читать области Lead-in и Lead-out : Нет
Заполнение пропущенных сэмплов тишиной : Да
Удаление блоков с тишиной в начале и конце : Нет
При вычислениях CRC использовались нулевые сэмплы : Да
Интерфейс : Установленный внешний ASPI-интерфейс
Выходной формат : Пользовательский кодировщик
Выбранный битрейт : 768 kBit/s
Качество : Высокий
Добавление ID3-тэга : Нет
Утилита сжатия : C:Program FilesExact Audio CopyFLACFLAC.EXE
Дополнительные параметры : -6 -V -T "ARTIST=%a" -T "TITLE=%t" -T "ALBUM=%g" -T "DATE=%y" -T "TRACKNUMBER=%n" -T "GENRE=%m" -T "COMMENT=%e" %s -o %d
TOC извлечённого CD
Трек | Старт | Длительность | Начальный сектор | Конечный сектор
---------------------------------------------------------------------
1 | 0:00.32 | 7:28.35 | 32 | 33666
2 | 7:28.67 | 7:37.03 | 33667 | 67944
3 | 15:05.70 | 6:26.50 | 67945 | 96944
4 | 21:32.45 | 3:16.45 | 96945 | 111689
5 | 24:49.15 | 5:46.47 | 111690 | 137686
6 | 30:35.62 | 9:15.65 | 137687 | 179376
7 | 39:51.52 | 3:08.00 | 179377 | 193476
8 | 42:59.52 | 5:06.28 | 193477 | 216454
9 | 48:06.05 | 8:19.57 | 216455 | 253936
10 | 56:25.62 | 6:41.60 | 253937 | 284071
11 | 63:07.47 | 6:18.33 | 284072 | 312454
12 | 69:26.05 | 3:18.60 | 312455 | 327364
13 | 72:44.65 | 2:16.10 | 327365 | 337574
Характеристики диапазона извлечения и сообщения об ошибках
Выбранный диапазон
Имя файла E:AUDIOR&BLIVIN' BLUES (Flac)1975 - Live '75Livin' Blues - Live '75.wav
Пиковый уровень 93.1 %
Качество диапазона 100.0 %
CRC копии 188172DD
Копирование... OK
Ошибок не произошло
Конец отчёта
filesonic.com
|




Alternative download links



Related MP3 FLAC to Livin Blues - Live 75 (1975)
Feedback
All rights reserved.
WEBBG.com © 2000-2018