Ofer Shapiro Quintet - Two Views (2010)
MP3 FLAC WMA APE HD

Ofer Shapiro Quintet - Two Views (2010)

  • Genre: Music, Jazz, FLAC / APE
  • Formats: MP3 FLAC WMA HD APE
  • Album Size: 1802 mb.
  • Archive: ZIP RAR
Artist: Ofer Shapiro Quintet
Title Of Album: Two Views
Year Of Release: 2010
Label: Jazzis Ltd.
Genre: Jazz
Quality: FLAC (image+.cue) + log
Bitrate: Lossless
Total Time: 1:02:15
Total Size: 401 Mb
A unique blend of New York's finest baritone saxophonist with a group of top Israeli musicians. Eight original instrumental compositions of mainstream jazz that touches on world, Jewish and classical music, creating a unique and contemporary synthesis.
Tracklist:
1. Two Views (tribute to Wayne Shorter) 8:23
2. Dancing Spirit 7:53
3. The Sea 9:48
4. Minor Blues 10:21
5. Evening 5:52
6. Three Variations on a Tune by Duke Ellington - Variation 1 6:59
7. Three Variations on a Tune by Duke Ellington - Variation 2 6:18
8. Three Variations on a Tune by Duke Ellington - Variation 3 6:37
Exact Audio Copy V1.0 beta 2 from 29. April 2011
EAC extraction logfile from 21. July 2011, 14:44
Ofer Shapiro Quintet / Two Views
Used drive : HL-DT-STDVDRAM GU10N Adapter: 3 ID: 0
Read mode : Secure
Utilize accurate stream : Yes
Defeat audio cache : Yes
Make use of C2 pointers : No
Read offset correction : 667
Overread into Lead-In and Lead-Out : No
Fill up missing offset samples with silence : Yes
Delete leading and trailing silent blocks : No
Null samples used in CRC calculations : Yes
Used interface : Native Win32 interface for Win NT & 2000
Used output format : Internal WAV Routines
Sample format : 44.100 Hz; 16 Bit; Stereo
TOC of the extracted CD
Track | Start | Length | Start sector | End sector
---------------------------------------------------------
1 | 0:00.00 | 8:23.64 | 0 | 37788
2 | 8:23.64 | 7:53.28 | 37789 | 73291
3 | 16:17.17 | 9:48.37 | 73292 | 117428
4 | 26:05.54 | 10:21.54 | 117429 | 164057
5 | 36:27.33 | 5:52.39 | 164058 | 190496
6 | 42:19.72 | 6:59.32 | 190497 | 221953
7 | 49:19.29 | 6:18.33 | 221954 | 250336
8 | 55:37.62 | 6:37.24 | 250337 | 280135
Range status and errors
Selected range
Filename C:PrivateMusic - to burnTo backup_Jazz-FusionOfer Shapiro Quintet 2010 - Two ViewsOfer Shapiro Quintet - Two Views.wav
Peak level 100.0 %
Extraction speed 4.1 X
Range quality 100.0 %
Copy CRC 0E2A4CBC
Copy OK
No errors occurred
AccurateRip summary
Track 1 not present in database
Track 2 not present in database
Track 3 not present in database
Track 4 not present in database
Track 5 not present in database
Track 6 not present in database
Track 7 not present in database
Track 8 not present in database
None of the tracks are present in the AccurateRip database
End of status report
FileSonic
Wupload



Alternative download links

DOWNLOAD

Related MP3 FLAC to Ofer Shapiro Quintet - Two Views (2010)
Feedback
All rights reserved.
WEBBG.com © 2000-2018