Preservation Hall Jazz Band - The Best Of The Early Years (2004)
MP3 FLAC WMA APE HD

Preservation Hall Jazz Band - The Best Of The Early Years (2004)

  • Genre: Music, Jazz, FLAC / APE
  • Formats: MP3 FLAC WMA HD APE
  • Album Size: 1548 mb.
  • Archive: ZIP RAR
Artist: Preservation Hall Jazz Band
Title Of Album: The Best Of The Early Years
Year Of Release: 2004
Label: Preservation Hall
Genre: Jazz, Dixieland, New Orleans Jazz
Quality: FLAC (Tracks,cue,log,basic covers) | MP3
Bitrate: lossless | 320kbps
Total Time: 51:58 min
Total Size: 359 mb/120 mb
TRACKLIST
01. Weary Blues (6:31)
02. Down By The Riverside (3:55)
03. Peanut Vendor (3:36)
04. Nelly Gray (3:17)
05. St. James Infirmary (3:15)
06. Everything's Lovely (0:51)
07. Olympia On Parade (3:12)
08. So Long Blues (6:00)
09. Ain't Got Nobody (3:06)
10. When The Saints Go Marching In (5:52)
11. Hindustan (5:25)
12. Lonesome Road (6:58)
Personnel: Narvin Kimball (vocals, banjo); Percy Humphrey (vocals, trumpet); De De Pierce (vocals, cornet); Billie Pierce (vocals, piano); Emanuel Sayles (banjo); George Lewis , Willie Humphrey (clarinet); Emanuel Paul (tenor saxophone); Edmond Foucher, Milton Batiste (trumpet); Frank Demond, Lester Caliste, Louis Nelson (trombone); Allan Jaffe (tuba, bass horn); William Brown (bass horn); Sweet Emma Barrett (piano); Joseph "Cie" Frazier (drums); Nowell Glass (bass drum); Andrew Jefferson (snare drum).
Showcasing the first three incarnations of New Orleans' pre-eminent, traditional jazz institution, the Preservation Hall, The Best of the Early Years features previously unavailable recordings as well as tracks culled from past releases including the 1964 live recording Sweet Emma and Her Preservation Hall Band as well as the 1966 live recording Billie and De De and Their Preservation Hall Band. Featuring such journeyman New Orleans jazz musicians as trumpeter Percy Humphrey, alto saxophonist Harold Dejan, trumpeter Milton Batiste, and banjo player Narvin Kimball, the compilation paints a picture of the Preservation Hall as the "rough but honest" torchbearer of its storied city's musical legacy. ~ Matt Collar
EAC extraction logfile from 31. August 2007, 12:13 for CD
Preservation Hall Jazz Band / The Best Of The Early Years
Used drive : SONY DVD RW DRU-720A Adapter: 0 ID: 1
Read mode : Secure with NO C2, accurate stream, disable cache
Read offset correction : 12
Overread into Lead-In and Lead-Out : No
Used output format : C:Program FilesExact Audio Copyflac.exe (User Defined Encoder)
192 kBit/s
Additional command line options : -8 -A tukey(0.25) -A gauss(0.1875) -b 4096 -V -T "artist=%a" -T "title=%t" -T "album=%g" -T "date=%y" -T "tracknumber=%n" -T "genre=%m" %s --sector-align
Other options :
Fill up missing offset samples with silence : Yes
Delete leading and trailing silent blocks : No
Installed external ASPI interface
Track 1
Filename C:DownloadsPreservation Hall Jazz Band - The Best Of The Early Years1. - Weary Blues.wav
Pre-gap length 0:00:02.00
Peak level 98.8 %
Track quality 100.0 %
Test CRC 3EBA038D
Copy CRC 3EBA038D
Copy OK
Track 2
Filename C:DownloadsPreservation Hall Jazz Band - The Best Of The Early Years2. - Down By The Riverside.wav
Pre-gap length 0:00:01.44
Peak level 98.3 %
Track quality 99.9 %
Test CRC B2158A8C
Copy CRC B2158A8C
Copy OK
Track 3
Filename C:DownloadsPreservation Hall Jazz Band - The Best Of The Early Years3. - Peanut Vendor.wav
Pre-gap length 0:00:01.22
Peak level 98.3 %
Track quality 100.0 %
Test CRC BDB26F71
Copy CRC BDB26F71
Copy OK
Track 4
Filename C:DownloadsPreservation Hall Jazz Band - The Best Of The Early Years4. - Nelly Gray.wav
Pre-gap length 0:00:02.12
Peak level 98.8 %
Track quality 100.0 %
Test CRC EF43A1EA
Copy CRC EF43A1EA
Copy OK
Track 5
Filename C:DownloadsPreservation Hall Jazz Band - The Best Of The Early Years5. - St. James Infirmary.wav
Pre-gap length 0:00:02.22
Peak level 96.6 %
Track quality 100.0 %
Test CRC D2ADFFD6
Copy CRC D2ADFFD6
Copy OK
Track 6
Filename C:DownloadsPreservation Hall Jazz Band - The Best Of The Early Years6. - Everything's Lovely.wav
Pre-gap length 0:00:01.24
Peak level 96.6 %
Track quality 99.7 %
Test CRC 71038706
Copy CRC 71038706
Copy OK
Track 7
Filename C:DownloadsPreservation Hall Jazz Band - The Best Of The Early Years7. - Olympia On Parade.wav
Pre-gap length 0:00:00.57
Peak level 98.3 %
Track quality 99.9 %
Test CRC 36965C1F
Copy CRC 36965C1F
Copy OK
Track 8
Filename C:DownloadsPreservation Hall Jazz Band - The Best Of The Early Years8. - So Long Blues.wav
Pre-gap length 0:00:02.22
Peak level 99.8 %
Track quality 100.0 %
Test CRC 54A50615
Copy CRC 54A50615
Copy OK
Track 9
Filename C:DownloadsPreservation Hall Jazz Band - The Best Of The Early Years9. - Ain't Got Nobody.wav
Pre-gap length 0:00:01.66
Peak level 98.8 %
Track quality 100.0 %
Test CRC E95F2768
Copy CRC E95F2768
Copy OK
Track 10
Filename C:DownloadsPreservation Hall Jazz Band - The Best Of The Early Years10. - When the Saints Go Marching In.wav
Pre-gap length 0:00:01.78
Peak level 98.8 %
Track quality 100.0 %
Test CRC 965C7792
Copy CRC 965C7792
Copy OK
Track 11
Filename C:DownloadsPreservation Hall Jazz Band - The Best Of The Early Years11. - Hindustan.wav
Pre-gap length 0:00:02.33
Peak level 98.8 %
Track quality 100.0 %
Test CRC 71AAF087
Copy CRC 71AAF087
Copy OK
Track 12
Filename C:DownloadsPreservation Hall Jazz Band - The Best Of The Early Years12. - Lonesome Road.wav
Pre-gap length 0:00:01.64
Peak level 96.6 %
Track quality 100.0 %
Test CRC B12EAEB8
Copy CRC B12EAEB8
Copy OK
No errors occured
End of status report
Download




Alternative download links

Bitshare

Related MP3 FLAC to Preservation Hall Jazz Band - The Best Of The Early Years (2004)
Feedback
All rights reserved.
WEBBG.com © 2000-2018