Beethoven - Piano concerto Nos.13 (Emil Gilels Adrian Boult) (2011)
MP3 FLAC WMA APE HD

Beethoven - Piano concerto Nos.13 (Emil Gilels Adrian Boult) (2011)

Artist: Beethoven
Title Of Album: Piano concerto Nos.1&3 (Emil Gilels & Adrian Boult)
Year Of Release: 2011
Label: ICA Classics / BBC Worldwide Ltd.
Genre: Piano
Quality: APE (image+.cue) + log
Bitrate: Lossless
Total Time: 70:26
Total Size: 350 Mb
Ludwig van Beethoven (baptised 17 December 1770–26 March 1827) was a German composer and pianist. The crucial figure in the transition between the Classical and Romantic eras in Western art music, he remains one of the most famous and influential composers of all time. Born in Bonn, then the capital of the Electorate of Cologne and part of the Holy Roman Empire of the German Nation in present-day Germany, Beethoven moved to Vienna in his early 20s, studying with Joseph Haydn and quickly gaining a reputation as a virtuoso pianist. His hearing began to deteriorate in the late 1790s, yet he continued to compose, conduct, and perform, even after becoming completely deaf.
Tracklist:
1-3. Piano Concerto No.1 in c major, Op.15
4-6. Piano Concerto No.3 in c minor, Op.37
Exact Audio Copy V0.99 prebeta 4 from 23. January 2008
Отчёт EAC об извлечении, выполненном 10. марта 2011, 17:22
Emil Gilels & Adrian Boult / Beethoven PC Nos.1&3
Дисковод: HP DVD Writer 1040r Adapter: 3 ID: 0
Режим чтения : Достоверность
Использование точного потока : Да
Отключение кэша аудио : Да
Использование указателей C2 : Нет
Коррекция смещения при чтении : 6
Способность читать области Lead-in и Lead-out : Нет
Заполнение пропущенных сэмплов тишиной : Да
Удаление блоков с тишиной в начале и конце : Нет
При вычислениях CRC использовались нулевые сэмплы : Да
Интерфейс : Встроенный Win32-интерфейс для Win NT/2000
Выходной формат : Внутренние WAV-операции
Формат сэмплов : 44.100 Гц; 16 бит; стерео
TOC извлечённого CD
Трек | Старт | Длительность | Начальный сектор | Конечный сектор
---------------------------------------------------------------------
1 | 0:00.00 | 14:28.53 | 0 | 65152
2 | 14:28.53 | 11:56.14 | 65153 | 118866
3 | 26:24.67 | 8:38.61 | 118867 | 157777
4 | 35:03.53 | 16:41.16 | 157778 | 232868
5 | 51:44.69 | 10:06.30 | 232869 | 278348
6 | 61:51.24 | 8:32.58 | 278349 | 316806
Характеристики диапазона извлечения и сообщения об ошибках
Выбранный диапазон
Имя файла C:GilelsBoultEmil Gilels; Adrian Boult - Beethoven PC Nos.1,3.wav
Пиковый уровень 100.0 %
Качество диапазона 100.0 %
CRC теста 497BD221
CRC копии 497BD221
Копирование... OK
Ошибок не произошло
Конец отчёта
FileSonic
Turbobit



Alternative download links

DOWNLOAD

Related MP3 FLAC to Beethoven - Piano concerto Nos.13 (Emil Gilels Adrian Boult) (2011)
Feedback
All rights reserved.
WEBBG.com © 2000-2018