Gabor Szabo - High Contrast (2003)
MP3 FLAC WMA APE HD

Gabor Szabo - High Contrast (2003)

  • Genre: Music, Jazz, FLAC / APE
  • Formats: MP3 FLAC WMA HD APE
  • Album Size: 1276 mb.
  • Archive: ZIP RAR
Artist: Gabor Szabo
Title Of Album: High Contrast
Original Year: 1971
Year Of Release: 2003
Label: Blue Thumb (Mini LP, 2003)
Genre: Jazz
Quality: FLAC (Img,cue,log,scans)|MP3
Bitrate: lossless | 320kbps
Total Time: 40:11 min
Total Size: 282 mb/103 mb (+%rec)
TRACKLIST
1. Breezin' (Bobby Womack) 3:13
2. Amazon (Gabor Szabo) 4:58
3. Fingers (Wolfhang Melz/Gabor Szabo) 7:35
4. Azure Blue (Gabor Szabo) 4:17
5. Just A Little Communication (Bobby Womack/Gabor Szabo) 7:52
6. If You Don't Want My Love (Bobby Womack) 4:39
7. I Remember When (Bobby Womack) 7:33
Personnel:
Gabor Szabo (Electric and Acoustic Guitar)
Bobby Womack (Rhythm Electric Guitar)
Wolfgang Melz (Bass)
Jim Keltner (Drums)
Felix Falcon (Congas)
Phil Upchurch (Bass ) - 1,3,6,7
Carmelo Garcia (Percussion) - 1-3,6,7
Mark Levine (Piano) - 3
This unlikely collaboration with R&B star Bobby Womack is surprisingly successful as an instrumental smooth-jazz guitar session. Womack uncharacteristically takes no vocals, and proves himself a very competent and sympathetic rhythm guitarist. This album feature's Womack's original recording of his composition "Breezin'", which was a smash crossover hit for George Benson. Szabo interprets the melody in his staccato voice, his approach more restrained than Benson's, but captivating in it's own way. "Amazon" has a dark tropical feel. Wolfgang Melz plays solid yet interesting basslines, and his co-composition "Fingers" provides another fine vehicle for extended guitar improvisation. The finale, "I Remember When" features a well-arranged string section that serves as a fine foil for Szabo's take on the country-style melody. - J. Levinson, Amazon.com
Exact Audio Copy V0.99 prebeta 4 from 23. January 2008
EAC extraction logfile from 3. September 2010, 18:32
Gabor Szabo / High Contrast
Used drive : _NEC DVD_RW ND-3500AG Adapter: 0 ID: 0
Read mode : Secure
Utilize accurate stream : Yes
Defeat audio cache : Yes
Make use of C2 pointers : No
Read offset correction : 48
Overread into Lead-In and Lead-Out : No
Fill up missing offset samples with silence : Yes
Delete leading and trailing silent blocks : No
Null samples used in CRC calculations : Yes
Used interface : Native Win32 interface for Win NT & 2000
Used output format : User Defined Encoder
Selected bitrate : 768 kBit/s
Quality : High
Add ID3 tag : No
Command line compressor : C:Program FilesExact Audio CopyFLACFLAC.EXE
Additional command line options : -6 -V -T "ARTIST=%a" -T "TITLE=%t" -T "ALBUM=%g" -T "DATE=%y" -T "TRACKNUMBER=%n" -T "GENRE=%m" -T "COMMENT=%e" %s -o %d
TOC of the extracted CD
Track | Start | Length | Start sector | End sector
---------------------------------------------------------
1 | 0:00.00 | 3:13.53 | 0 | 14527
2 | 3:13.53 | 4:58.24 | 14528 | 36901
3 | 8:12.02 | 7:35.08 | 36902 | 71034
4 | 15:47.10 | 4:17.72 | 71035 | 90381
5 | 20:05.07 | 7:52.72 | 90382 | 125853
6 | 27:58.04 | 4:39.23 | 125854 | 146801
7 | 32:37.27 | 7:34.41 | 146802 | 180892
Range status and errors
Selected range
Filename J:eMusicRipGabor Szabo - High Contrast.wav
Peak level 100.0 %
Range quality 100.0 %
Test CRC D1B69429
Copy CRC D1B69429
Copy OK
No errors occurred

AccurateRip summary

Track 1 accurately ripped (confidence 4) [0C08780B]
Track 2 accurately ripped (confidence 4) [4AF7AF61]
Track 3 accurately ripped (confidence 4) [D7ED6709]
Track 4 accurately ripped (confidence 4) [1236FB62]
Track 5 accurately ripped (confidence 4) [415BF244]
Track 6 accurately ripped (confidence 4) [8618EB18]
Track 7 accurately ripped (confidence 3) [E07817EA]

All tracks accurately ripped
End of status report
DOWNLOAD Lossless
Filesonic.com:

Hotfile.com:
DOWNLOAD MP3:




Alternative download links

part1 part2 HotFile

Related MP3 FLAC to Gabor Szabo - High Contrast (2003)
Feedback
All rights reserved.
WEBBG.com © 2000-2018