Terence Blanchard - Wandering Moon (2000)
MP3 FLAC WMA APE HD

Terence Blanchard - Wandering Moon (2000)

  • Genre: Music, Jazz, FLAC / APE
  • Formats: MP3 FLAC WMA HD APE
  • Album Size: 1298 mb.
  • Archive: ZIP RAR
Artist: Terence Blanchard
Title Of Album: Wandering Moon
Year Of Release: 2000
Label: Sony
Genre: Jazz, Jazz Trumpet, Mainstream Jazz
Quality: FLAC (Img,cue,log,cover) | MP3
Bitrate: lossless | 320kbps
Total Time: 75:01 min
Total Size: 473 mb/177 mb (+5% rec.)
Tracklist
1. Luna Viajera
2. If I Could, I Would
3. Bass Solo
4. My Only Thought of You
5. Simplemente Simon
6. Sweet's Dream
7. Sidney
8. The Process
9. Joe & O
10. I Thought About You
Terence Blanchard - trumpet
Aaron Fletcher - alto saxophone
Branford Marsalis - tenor saxophone
Edward Simon - piano
Dave Holland - Bass
Brice Winston - tenor saxophone
Eric Harland - drums
Trumpeter Blanchard has released some fine recordings in the '90s, but this one may be the best of them all, as he asserts himself as a composer of truly original modern jazz. He wrote seven selections, utilizing one or two of three saxophonists per cut — Branford Marsalis and Brice Winston (tenor) or Aaron Fletcher (alto). It's the rhythm section that boils this pot over; bassist David Holland and especially pianist Edward Simon are en fuego, while young drummer Eric Harland continues to show steady progress en route to becoming a first-rate trappist.
The first piece, "Luna Viajera", harkens back to the composition "Black Pearl." It's a dark, tick-tock, well-after-hours siren's song, with Fletcher and Winston crying uncle for romantic mercy. A patented, masterful bass solo from Holland intros "My Only Thought of You", an easy waltz with moaning, clarion horns by the leader and Marsalis, with a tick-tock beat going back to 3/4 informing the tenorman's solo. Three later numbers feature Winston: the very slow ballad "Sweet's Dream" has a lonely trumpet line from Blanchard; "Sidney" metamorphoses "End of a Love Affair" snippets into a completely new tune; while Simon's lone composition "The Process" is a deep midnight-blue waltz. The 11-minute "Joe & O" has steadily swung, introspective fragments of hip melody strewn throughout from Blanchard and Marsalis, while the resolute token standard finale "I Thought About You" is a languid blues-drizzled ballad for only the leader and his astute trio.
Sparks fly, and unrequited moods coalesce during this prismatic epic of emotions, swing, and truly new mainstream jazz from Blanchard and his cohorts. It comes highly recommended, and is a strong candidate for Jazz CD of Y2K. ~ Michael G. Nastos, All Music Guide
Exact Audio Copy V0.99 prebeta 4 from 23. January 2008
Отчёт EAC об извлечении, выполненном 10. февраля 2009, 21:38
Terence Blanchard / Wandering Moon
Дисковод: TSSTcorpCDDVDW TS-L632H Adapter: 2 ID: 0
Режим чтения : Достоверность
Использование точного потока : Да
Отключение кэша аудио : Да
Использование указателей C2 : Нет
Коррекция смещения при чтении : 6
Способность читать области Lead-in и Lead-out : Нет
Заполнение пропущенных сэмплов тишиной : Да
Удаление блоков с тишиной в начале и конце : Нет
При вычислениях CRC использовались нулевые сэмплы : Да
Интерфейс : Установленный внешний ASPI-интерфейс
Выходной формат : Пользовательский кодировщик
Выбранный битрейт : 768 kBit/s
Качество : Высокий
Добавление ID3-тэга : Нет
Утилита сжатия : C:Program FilesExact Audio CopyFLACFLAC.EXE
Дополнительные параметры : -6 -V -T "ARTIST=%a" -T "TITLE=%t" -T "ALBUM=%g" -T "DATE=%y" -T "TRACKNUMBER=%n" -T "GENRE=%m" -T "COMMENT=%e" %s -o %d
TOC извлечённого CD
Трек | Старт | Длительность | Начальный сектор | Конечный сектор
---------------------------------------------------------------------
1 | 0:00.00 | 7:49.72 | 0 | 35246
2 | 7:49.72 | 9:19.15 | 35247 | 77186
3 | 17:09.12 | 1:10.23 | 77187 | 82459
4 | 18:19.35 | 6:54.30 | 82460 | 113539
5 | 25:13.65 | 8:25.67 | 113540 | 151481
6 | 33:39.57 | 7:24.35 | 151482 | 184816
7 | 41:04.17 | 6:44.53 | 184817 | 215169
8 | 47:48.70 | 7:26.40 | 215170 | 248659
9 | 55:15.35 | 10:57.05 | 248660 | 297939
10 | 66:12.40 | 9:00.45 | 297940 | 338484
Характеристики диапазона извлечения и сообщения об ошибках
Выбранный диапазон
Имя файла F:JAZZLOSSLESSTerence Blanchard - Wandering MoonTerence Blanchard - Wandering Moon.wav
Пиковый уровень 100.0 %
Качество диапазона 100.0 %
CRC теста 47980381
CRC копии 47980381
Копирование... OK
Ошибок не произошло
Конец отчёта
AUDIOCHECKER v2.0 beta (build 457) - by Dester - [email protected]
~~~~~~~~~~~~~~~~~~~~~~~~~~~~~~~~~~
-=== DO NOT EDIT THIS FILE! ===-
Path: ...Terence Blanchard - Wandering Moon
1 -=- Terence Blanchard - Wandering Moon.flac -=- CDDA (100%)
149682756
Lossless

MP3




Alternative download links

hotfile.com-1 hotfile.com-2 hotfile.com-3 uploaded.to-1 uploaded.to-2 uploaded.to-3 HOTFILE FILESERVE UPLOADED

Related MP3 FLAC to Terence Blanchard - Wandering Moon (2000)
Feedback
All rights reserved.
WEBBG.com © 2000-2018