Nemo - R?volu$ion (2011)
MP3 FLAC WMA APE HD

Nemo - R?volu$ion (2011)

Free download links


Nemo - R?volu$ion (2011) .zip
MP3 version ZIP archive

1342 downloads at 30 mb/s

Nemo - R?volu$ion (2011) .zip
FLAC/APE version ZIP archive

943 downloads at 22 mb/s
Artist: Nemo
Title Of Album: R?volu$ion
Year Of Release: 2011
Label: Quadrifonic
Genre: Eclectic Prog
Quality: FLAC (image+.cue) + log
Bitrate: Lossless
Total Time: 62:03
Total Size: 432 Mb
This French band was rooted in '99 when Pascal Bertrand (drums and percussion), Pierre Louveton (guitar and vocals) and Guillaume Fontaine (keyboards) decided to make progressive rock music. In 2000 bass player Hervé Esquis joined NEMO but he was soon replaced by Benoit Gaignon. Early 2002 the band started to perform, their first concert was attended by at about 100 spectators. In July 2002 NEMO released their first album entitled "Les Nouveax Mondes", a few months later NEMO hosted again a new bass player named JB Itier. In this line-up NEMO released their second album entitled "Présages", they promoted this CD on the Crescendo Festival in the same year, along with ANGLAGARD, CAST and FOCUS. What a thrill it must have been to watch these progrock bands!
Tracklist:
01. Liberté, Egalité, Insurrection ! (2:23)
02. Je suis un objet (5:43)
03. R?volu$ion (5:08)
04. Aux portes du paradis (2:21)
05. Seul dans la foule (9:36)
06. Chiens en laisse (5:35)
07. Loins des yeux (Barbares parties VIII a XII) (24:30)
08. Notes pour plus tard ... (6:43)
Exact Audio Copy V0.99 prebeta 4 from 23. January 2008
Отчёт EAC об извлечении, выполненном 28. июня 2011, 20:35
Nemo / R?volu$ion
Дисковод: HL-DT-STDVDRAM GSA-H42L Adapter: 0 ID: 0
Режим чтения : Достоверность
Использование точного потока : Да
Отключение кэша аудио : Да
Использование указателей C2 : Нет
Коррекция смещения при чтении : 667
Способность читать области Lead-in и Lead-out : Нет
Заполнение пропущенных сэмплов тишиной : Да
Удаление блоков с тишиной в начале и конце : Нет
При вычислениях CRC использовались нулевые сэмплы : Нет
Интерфейс : Встроенный Win32-интерфейс для Win NT/2000
Выходной формат : Пользовательский кодировщик
Выбранный битрейт : 1024 kBit/s
Качество : Высокий
Добавление ID3-тэга : Нет
Утилита сжатия : C:Program FilesFLACflac.exe
Дополнительные параметры : -8 -V %s
TOC извлечённого CD
Трек | Старт | Длительность | Начальный сектор | Конечный сектор
---------------------------------------------------------------------
1 | 0:00.00 | 2:18.35 | 0 | 10384
2 | 2:18.35 | 5:42.07 | 10385 | 36041
3 | 8:00.42 | 5:11.05 | 36042 | 59371
4 | 13:11.47 | 2:21.24 | 59372 | 69970
5 | 15:32.71 | 9:37.01 | 69971 | 113246
6 | 25:09.72 | 5:35.53 | 113247 | 138424
7 | 30:45.50 | 24:32.71 | 138425 | 248895
8 | 55:18.46 | 6:44.72 | 248896 | 279267
Характеристики диапазона извлечения и сообщения об ошибках
Выбранный диапазон
Имя файла F:ANDCD ImagesNewNemo - 2011 - R?volu$ion [Flac]Nemo - R?volu$ion.wav
Пиковый уровень 100.0 %
Качество диапазона 100.0 %
CRC копии 6BADDA4C
Копирование... OK
Ошибок не произошло
AccurateRip: сводка
Трек 1 точность не определена (достоверность 2) [B454C8EC], AccurateRip вернул [0B5C1777]
Трек 2 точность не определена (достоверность 2) [C6101FB4], AccurateRip вернул [2F960E05]
Трек 3 точность не определена (достоверность 2) [BE814B21], AccurateRip вернул [C35A5513]
Трек 4 точность не определена (достоверность 2) [96FDA771], AccurateRip вернул [205A0B5D]
Трек 5 точность не определена (достоверность 2) [C75BAF7A], AccurateRip вернул [42B922BD]
Трек 6 точность не определена (достоверность 2) [21698F2A], AccurateRip вернул [3DA6D6D9]
Трек 7 точность не определена (достоверность 2) [4AC6BE6B], AccurateRip вернул [3A309CA5]
Трек 8 точность не определена (достоверность 2) [F9FBCDAE], AccurateRip вернул [90FF9FD0]
Ни один трек не прошёл проверки на точность
В вашей базе может быть иной вариант штамповки диска
Конец отчёта
FileSonic
Wupload



Alternative download links

DOWNLOAD

Related MP3 FLAC to Nemo - R?volu$ion (2011)
Feedback
All rights reserved.
WEBBG.com © 2000-2018