Livin Blues - Wang Dang Doodle (1970)
MP3 FLAC WMA APE HD

Livin Blues - Wang Dang Doodle (1970)

Artist: Livin' Blues
Title Of Album: Wang Dang Doodle
Year Of Release: 1990
Label: Repertore Records
Genre: Blues Rock
Quality: FLAC
Bitrate: lossless
Total Time: 38:50
Total Size: 236 mb
Tracklist:
01. Wang Dang Doodle 5:10
02. I Came Home At Night 7:03
03. Whiskey And Gin 2:02
04. This Is The Hour 3:00
05. When The Sun Goes Down 4:46
06. Go-Go-Train 4:57
07. Spoonful 11:49
Exact Audio Copy V0.99 prebeta 5 from 4. May 2009
Отчёт EAC об извлечении, выполненном 6. июня 2009, 18:18
Livin' Blues / Wang Dang Doodle
Дисковод: _NEC DVD_RW ND-3540A Adapter: 2 ID: 0
Режим чтения : Достоверность
Использование точного потока : Да
Отключение кэша аудио : Да
Использование указателей C2 : Нет
Коррекция смещения при чтении : 48
Способность читать области Lead-in и Lead-out : Нет
Заполнение пропущенных сэмплов тишиной : Да
Удаление блоков с тишиной в начале и конце : Нет
При вычислениях CRC использовались нулевые сэмплы : Да
Интерфейс : Установленный внешний ASPI-интерфейс
Выходной формат : Пользовательский кодировщик
Выбранный битрейт : 768 kBit/s
Качество : Высокий
Добавление ID3-тэга : Нет
Утилита сжатия : C:Program FilesExact Audio CopyFLACFLAC.EXE
Дополнительные параметры : -6 -V -T "ARTIST=%a" -T "TITLE=%t" -T "ALBUM=%g" -T "DATE=%y" -T "TRACKNUMBER=%n" -T "GENRE=%m" -T "COMMENT=%e" %s -o %d
TOC извлечённого CD
Трек | Старт | Длительность | Начальный сектор | Конечный сектор
---------------------------------------------------------------------
1 | 0:00.00 | 5:10.00 | 0 | 23249
2 | 5:10.00 | 7:03.27 | 23250 | 55001
3 | 12:13.27 | 2:02.70 | 55002 | 64221
4 | 14:16.22 | 3:00.58 | 64222 | 77779
5 | 17:17.05 | 4:46.47 | 77780 | 99276
6 | 22:03.52 | 4:57.40 | 99277 | 121591
7 | 27:01.17 | 11:49.08 | 121592 | 174774
Характеристики диапазона извлечения и сообщения об ошибках
Выбранный диапазон
Имя файла E:AUDIOR&BLIVIN' BLUES (Flac)1970 - Wang Dang DoodleLivin' Blues - Wang Dang Doodle.wav
Пиковый уровень 99.9 %
Качество диапазона 100.0 %
CRC копии 3666C4E9
Копирование... OK
Ошибок не произошло
AccurateRip: сводка
Трек 1 точное извлечение (доверие 3) [1F7340F9]
Трек 2 точное извлечение (доверие 3) [0C0CFC2B]
Трек 3 точное извлечение (доверие 3) [015F7E21]
Трек 4 точное извлечение (доверие 3) [E6D79370]
Трек 5 точное извлечение (доверие 3) [EA13DFB3]
Трек 6 точное извлечение (доверие 3) [938F4143]
Трек 7 точное извлечение (доверие 3) [9B23CA4E]
Все треки извлечены точно
Конец отчёта




Alternative download links



Related MP3 FLAC to Livin Blues - Wang Dang Doodle (1970)
Feedback
All rights reserved.
WEBBG.com © 2000-2018