Harvie Swartz Urban Earth - Its About Time (1988)
MP3 FLAC WMA APE HD

Harvie Swartz Urban Earth - Its About Time (1988)

  • Genre: Music, Jazz, FLAC / APE
  • Formats: MP3 FLAC WMA HD APE
  • Album Size: 1304 mb.
  • Archive: ZIP RAR
Artist: Harvie Swartz & Urban Earth
Title Of Album: It's About Time
Year Of Release: 1988
Label: Gaia Records
Genre: Fusion
Quality: APE (image+.cue) + log
Bitrate: Lossless
Total Time: 00:35:57
Total Size: 208 Mb
"A superior and flexible bassist able to contribute to a wide variety of advanced settings, Harvie Swartz is perhaps best known for his series of duet recordings and performances with singer Sheila Jordan. Originally a pianist, he started playing bass fairly late (in 1967, when he was already 19) but developed quickly. After attending Berklee, he performed in the Boston area with Al Cohn, Zoot Sims, Mose Allison, and Chris Connor, among others. After moving to New York in 1972, Swartz worked with Jackie & Roy, Jackie Paris, Thad Jones, Gil Evans, Lee Konitz, Barry Miles' Silverlight (1974-1976), David Friedman, Double Image, David Matthews' big band, Steve Kuhn (1977-1981), Paul Motian, and countless other top musicians. Harvie Swartz has headed several of his own groups, including Urban Earth (which recorded for Gramavision); he has also led dates for Bluemoon, Novus, Zoho, and Savant (the latter two as Harvie S)."
Tracklist:
1. It's About Time 6:29
2. Winthrop Beach 6:35
3. Electric Rainbow 5:38
4. RV 5:08
5. Forever 4:38
6. Stang 5:25
7. Poem For A Flower 2:00
Exact Audio Copy V0.99 prebeta 4 from 23. January 2008
EAC extraction logfile from 24. October 2009, 19:41
Harvie Swartz / It's About Time
Used drive : HL-DT-STRW/DVD GCC-4242N Adapter: 1 ID: 0
Read mode : Secure
Utilize accurate stream : Yes
Defeat audio cache : Yes
Make use of C2 pointers : No
Read offset correction : 102
Overread into Lead-In and Lead-Out : No
Fill up missing offset samples with silence : Yes
Delete leading and trailing silent blocks : No
Null samples used in CRC calculations : Yes
Used interface : Native Win32 interface for Win NT & 2000
Used output format : Internal WAV Routines
Sample format : 44.100 Hz; 16 Bit; Stereo
TOC of the extracted CD
Track | Start | Length | Start sector | End sector
---------------------------------------------------------
1 | 0:00.00 | 6:29.62 | 0 | 29236
2 | 6:29.62 | 6:35.60 | 29237 | 58921
3 | 13:05.47 | 5:38.35 | 58922 | 84306
4 | 18:44.07 | 5:08.68 | 84307 | 107474
5 | 23:53.00 | 4:38.22 | 107475 | 128346
6 | 28:31.22 | 5:25.28 | 128347 | 152749
7 | 33:56.50 | 2:00.67 | 152750 | 161816
Range status and errors
Selected range
Filename C:_EAC_OutOutHarvie Swartz - It's About TimeHarvie Swartz - It's About Time.wav
Peak level 97.7 %
Range quality 100.0 %
Copy CRC B5931CA6
Copy OK
No errors occurred
AccurateRip summary
Track 1 accurately ripped (confidence 1) [F4AC5430]
Track 2 accurately ripped (confidence 1) [BAE68CD2]
Track 3 accurately ripped (confidence 1) [DADAA1E1]
Track 4 accurately ripped (confidence 1) [D8246D99]
Track 5 accurately ripped (confidence 1) [DEE5AD5D]
Track 6 accurately ripped (confidence 1) [D8673C25]
Track 7 accurately ripped (confidence 1) [C512F49F]
All tracks accurately ripped
End of status report
FileSonic
Wupload



Alternative download links

DOWNLOAD

Related MP3 FLAC to Harvie Swartz Urban Earth - Its About Time (1988)
Feedback
All rights reserved.
WEBBG.com © 2000-2018