Rush - Roll The Bones (24K + Gold Edition CD) - 1991 (2011)
MP3 FLAC WMA APE HD

Rush - Roll The Bones (24K + Gold Edition CD) - 1991 (2011)

Artist: Rush
Title Of Album: Roll The Bones (24K + Gold Edition CD)
Year Of Release: 1991/2011
Label: Audio Fidelity
Genre: Prog rock
Quality: FLAC (tracks+.cue) + log
Bitrate: Lossless
Total Time: 00:48:04
Total Size: 344 Mb
Rush is a Canadian rock band formed in August 1968, in the Willowdale neighbourhood of Toronto, Ontario. The band is composed of bassist, keyboardist, and lead vocalist Geddy Lee, guitarist Alex Lifeson, and drummer and lyricist Neil Peart. The band and its membership went through a number of re-configurations between 1968 and 1974, achieving their current form when Peart replaced original drummer John Rutsey in July 1974, two weeks before the group's first United States tour.
Tracklist:
01. Dreamline
02. Bravado
03. Roll The Bones
04. Face Up
05. Where's My Thing? (Part IV, 'Gangster of Boats' Trilogy)
06. The Big Wheel
07. Heresy
08. Ghost Of A Chance
09. Neurotica
10. You Bet Your Life
Exact Audio Copy V1.0 beta 1 from 15. November 2010
EAC extraction logfile from 17. August 2011, 12:34
Rush / Roll The Bones
Used drive : PIONEER BD-RW BDR-205 Adapter: 1 ID: 0
Read mode : Secure
Utilize accurate stream : Yes
Defeat audio cache : Yes
Make use of C2 pointers : No
Read offset correction : 667
Overread into Lead-In and Lead-Out : No
Fill up missing offset samples with silence : Yes
Delete leading and trailing silent blocks : No
Null samples used in CRC calculations : Yes
Used interface : Installed external ASPI interface
Gap handling : Appended to previous track
Used output format : User Defined Encoder
Selected bitrate : 896 kBit/s
Quality : High
Add ID3 tag : No
Command line compressor : C:Exact Audio CopyFlacflac.exe
Additional command line options : -V -8 -T "artist=%a" -T "title=%t" -T "album=%g" -T "date=%y" -T "tracknumber=%n" -T "genre=%m" %s
TOC of the extracted CD
Track | Start | Length | Start sector | End sector
---------------------------------------------------------
1 | 0:00.00 | 4:37.43 | 0 | 20817
2 | 4:37.43 | 4:35.68 | 20818 | 41510
3 | 9:13.36 | 5:30.19 | 41511 | 66279
4 | 14:43.55 | 3:53.74 | 66280 | 83828
5 | 18:37.54 | 3:51.28 | 83829 | 101181
6 | 22:29.07 | 5:12.35 | 101182 | 124616
7 | 27:41.42 | 5:26.11 | 124617 | 149077
8 | 33:07.53 | 5:18.73 | 149078 | 173000
9 | 38:26.51 | 4:39.73 | 173001 | 193998
10 | 43:06.49 | 5:00.21 | 193999 | 216519
Track 1
Filename C:Rips1 - Dreamline.wav
Pre-gap length 0:00:02.00
Peak level 100.0 %
Extraction speed 4.5 X
Track quality 100.0 %
Test CRC 6115B539
Copy CRC 6115B539
Track not present in AccurateRip database
Copy OK
Track 2
Filename C:Rips2 - Bravado.wav
Peak level 100.0 %
Extraction speed 5.0 X
Track quality 100.0 %
Test CRC 0B99C256
Copy CRC 0B99C256
Track not present in AccurateRip database
Copy OK
Track 3
Filename C:Rips3 - Roll The Bones.wav
Peak level 100.0 %
Extraction speed 5.6 X
Track quality 100.0 %
Test CRC 85CCA800
Copy CRC 85CCA800
Track not present in AccurateRip database
Copy OK
Track 4
Filename C:Rips4 - Face Up.wav
Peak level 100.0 %
Extraction speed 5.8 X
Track quality 100.0 %
Test CRC FDFAF7AB
Copy CRC FDFAF7AB
Track not present in AccurateRip database
Copy OK
Track 5
Filename C:Rips5 - Where's My Thing (Part IV, ''Gangster Of Boats'' Trilogy).wav
Suspicious position 0:03:50
Peak level 100.0 %
Extraction speed 3.6 X
Track quality 99.7 %
Test CRC DDD23E7C
Copy CRC F3078FB5
Track not present in AccurateRip database
Copy finished
Track 6
Filename C:Rips6 - The Big Wheel.wav
Peak level 100.0 %
Extraction speed 5.9 X
Track quality 99.9 %
Test CRC 13EB26D2
Copy CRC 13EB26D2
Track not present in AccurateRip database
Copy OK
Track 7
Filename C:Rips7 - Heresy.wav
Peak level 100.0 %
Extraction speed 7.0 X
Track quality 100.0 %
Test CRC 759B4126
Copy CRC 759B4126
Track not present in AccurateRip database
Copy OK
Track 8
Filename C:Rips8 - Ghost Of A Chance.wav
Peak level 100.0 %
Extraction speed 7.4 X
Track quality 100.0 %
Test CRC C9DB9AF5
Copy CRC C9DB9AF5
Track not present in AccurateRip database
Copy OK
Track 9
Filename C:Rips9 - Neurotica.wav
Peak level 100.0 %
Extraction speed 7.5 X
Track quality 100.0 %
Test CRC FAEB12BC
Copy CRC FAEB12BC
Track not present in AccurateRip database
Copy OK
Track 10
Filename C:Rips10 - You Bet Your Life.wav
Peak level 100.0 %
Extraction speed 7.9 X
Track quality 100.0 %
Test CRC 79AA3D74
Copy CRC 79AA3D74
Track not present in AccurateRip database
Copy OK
None of the tracks are present in the AccurateRip database
There were errors
End of status report
FileSonic
Wupload



Alternative download links

DOWNLOAD

Related MP3 FLAC to Rush - Roll The Bones (24K + Gold Edition CD) - 1991 (2011)
Feedback
All rights reserved.
WEBBG.com © 2000-2018