Carlo Maria Giulini - The Chicago Recordings
MP3 FLAC WMA APE HD

Carlo Maria Giulini - The Chicago Recordings

Artist: Carlo Maria Giulini
Title Of Album: Carlo Maria Giulini - The Chicago Recordings
Year Of Release: June 15, 2004
Label: EMI Classics
Genre: Classical, Instrumental
Quality: FLAC
Bitrate: lossless-image +cue +log +NO COVERS
Total Size: 1.44 Gb
The recordings that Giulini made with the Chicago Symphony between 1969 and 1976 document an extraordinary partnership and remain among the finest of the conductor's career. Giulini's Mahler First is more lyric than most, yet with enough energy to satisfy Mahlerians; the last movement a tribute to the conductor's unerring sense of orchestral balances even in crushing climaxes. His rendition of the orchestral movements of Berlioz's "dramatic symphony" Romeo and Juliet excels in its poetry, the warmly caressing Chicago strings in the Love Scene irresistible. The Beethoven Seventh is an eloquent blend of the Dionysian and Apollonian approaches to this "dance symphony," with glowing horns, driving rhythms and lovely solo turns. Giulini's later remakes of the Beethoven and other works in the set often were soporific; here, he's on target. This Bruckner Ninth, for example, is grandly rhetorical but full of passion. The Brahms Fourth is a highly personal account, with a ravishing slow movement, while the Stravinsky ballet suites reveal the Chicagoans at their most refined; the Firebird exquisitely colored, Petrushka, amazingly precise. Classic recordings, well transferred; a bargain that shouldn't be missed.
--Dan Davis
Tracklist:
CD1 - Mahler - Symphony No.1 in D; Berlioz - Romeo and Juliet
Gustav Mahler
Symphony No.1 in D

1. Langsam, schleppend, wie ein Naturlaut
2. Kraftig bewegt, doch nicht zu schnell
3. Feierlich und gemessen, ohne zu schleppen
4. Sturmisch bewegt
Hector Berlioz
Romeo and Juliet, Dramatic Symphony Op.17

5. Combat And Tumult - Interview Of The Prince
6. Romeo Alone - Melancholy - Distant Noises Of Music And Dancing - Festivities At The Capulets'
CD2 - Berlioz - Romeo and Juliet; Beethoven - Symphony No.7 in A major Op.92
Hector Berlioz
Romeo and Juliet, Dramatic Symphony Op.17

1. Scherzo : Queen Mab, or the Dream Fairy
2. Love Scene - Night - The Capulet's Garden
3. Romeo At The Tomb Of The Capulets - Invocation - Juliet's Reawakening - Frenzied Joy, Despair - Last Agonies And Death Of The Two Lovers
Ludwig van Beethoven
Symphony No.7 in A major Op.92

4. I. Poco sostenuto - Vivace
5. II. Allegretto
6. III. Presto - Assai Meno Presto - Presto - Assai Meno Presto - Presto
7. IV. Allegro con brio
CD3 - Bruckner - Symphony No.9 in D minor; Brahms - Symphony No.4 in E minor
Anton Bruckner
Symphony No.9 in D minor

1. Feierlich, misterioso
2. Scherzo (Bewegt, Lebhaft) - Trio (Schnell) - Scherzo (Da Capo)
3. Adagio ( Langsam, feierlich)
Johannes Brahms
Symphony No.4 in E minor

4. Allegro non troppo
CD4 - Brahms - Symphony No.4 in E minor; Stravinsky - The Firebird Suite, Petrushka Suite
Johannes Brahms
Symphony No.4 in E minor

1. Andante moderato
2. Allegro giocoso
3. Allegro energico e passionato
Igor Stravinsky
The Firebird Suite

4. Introduction
5. Dance of the Firebird
6. Round Dance of the princess
7. Dance of King Kastchei
8. Berceuse
9. Finale
Petrushka Suite
10. Russian Dance
11. Petrushka's Room
12. The Moor's Room
13. The Shrovetide Fair
Orchestra: Chicago Symphony Orchestra
Conductor: Carlo Maria Giulini
Composer: Gustav Mahler, Hector Berlioz, Ludwig van Beethoven, Anton Bruckner, Johannes Brahms, Igor Stravinsky
Exact Audio Copy V0.99 prebeta 5 from 4. May 2009
EAC extraction logfile from 26. August 2010, 14:54
Carlo Maria Giulini / The Chicago Years ( CD 1 of 4 )
Used drive : ASUS DRW-1814BLT Adapter: 2 ID: 2
Read mode : Secure
Utilize accurate stream : Yes
Defeat audio cache : Yes
Make use of C2 pointers : No
Read offset correction : 6
Overread into Lead-In and Lead-Out : No
Fill up missing offset samples with silence : Yes
Delete leading and trailing silent blocks : No
Null samples used in CRC calculations : Yes
Used interface : Native Win32 interface for Win NT & 2000
Used output format : Internal WAV Routines
Sample format : 44.100 Hz; 16 Bit; Stereo
TOC of the extracted CD
Track | Start | Length | Start sector | End sector
---------------------------------------------------------
1 | 0:00.00 | 16:49.42 | 0 | 75716
2 | 16:49.42 | 8:00.53 | 75717 | 111769
3 | 24:50.20 | 11:23.00 | 111770 | 162994
4 | 36:13.20 | 20:52.67 | 162995 | 256961
5 | 57:06.12 | 4:55.10 | 256962 | 279096
6 | 62:01.22 | 13:44.15 | 279097 | 340911
Range status and errors
Selected range
Filename K:EACGiuliniCarlo Maria Giulini - The Chicago Years ( CD 1 of 4 ).wav
Peak level 99.9 %
Range quality 100.0 %
Copy CRC A8FBDD97
Copy OK
No errors occurred
AccurateRip summary
Track 1 accurately ripped (confidence 13) [F56E12FB]
Track 2 accurately ripped (confidence 13) [1FEC5CE9]
Track 3 accurately ripped (confidence 13) [85E73E3C]
Track 4 accurately ripped (confidence 13) [D123FF61]
Track 5 accurately ripped (confidence 13) [394F9FD1]
Track 6 accurately ripped (confidence 13) [B1321190]
All tracks accurately ripped
End of status report
Exact Audio Copy V0.99 prebeta 5 from 4. May 2009
EAC extraction logfile from 26. August 2010, 15:14
Carlo Maria Giulini / The Chicago Recordings ( CD 2 of 4 )
Used drive : ASUS DRW-1814BLT Adapter: 2 ID: 2
Read mode : Secure
Utilize accurate stream : Yes
Defeat audio cache : Yes
Make use of C2 pointers : No
Read offset correction : 6
Overread into Lead-In and Lead-Out : No
Fill up missing offset samples with silence : Yes
Delete leading and trailing silent blocks : No
Null samples used in CRC calculations : Yes
Used interface : Native Win32 interface for Win NT & 2000
Used output format : Internal WAV Routines
Sample format : 44.100 Hz; 16 Bit; Stereo
TOC of the extracted CD
Track | Start | Length | Start sector | End sector
---------------------------------------------------------
1 | 0:00.00 | 8:44.57 | 0 | 39356
2 | 8:44.57 | 17:02.68 | 39357 | 116074
3 | 25:47.50 | 9:01.05 | 116075 | 156654
4 | 34:48.55 | 15:08.57 | 156655 | 224811
5 | 49:57.37 | 9:34.68 | 224812 | 267929
6 | 59:32.30 | 8:14.65 | 267930 | 305044
7 | 67:47.20 | 7:31.05 | 305045 | 338874
Range status and errors
Selected range
Filename K:EACGiuliniCarlo Maria Giulini - The Chicago Recordings ( CD 2 of 4 ).wav
Peak level 99.9 %
Range quality 100.0 %
Copy CRC DDAA124D
Copy OK
No errors occurred
AccurateRip summary
Track 1 accurately ripped (confidence 12) [BCAD308C]
Track 2 accurately ripped (confidence 12) [C5AB4DA5]
Track 3 accurately ripped (confidence 12) [0E448B6A]
Track 4 accurately ripped (confidence 12) [177BF363]
Track 5 accurately ripped (confidence 12) [10EB6499]
Track 6 accurately ripped (confidence 12) [C0459587]
Track 7 accurately ripped (confidence 12) [ABEBA090]
All tracks accurately ripped
End of status report
Exact Audio Copy V0.99 prebeta 5 from 4. May 2009
EAC extraction logfile from 26. August 2010, 16:05
Carlo Maria Giulini / The Chicago Years ( CD 3 of 4 )
Used drive : ASUS DRW-1814BLT Adapter: 2 ID: 2
Read mode : Secure
Utilize accurate stream : Yes
Defeat audio cache : Yes
Make use of C2 pointers : No
Read offset correction : 6
Overread into Lead-In and Lead-Out : No
Fill up missing offset samples with silence : Yes
Delete leading and trailing silent blocks : No
Null samples used in CRC calculations : Yes
Used interface : Native Win32 interface for Win NT & 2000
Used output format : Internal WAV Routines
Sample format : 44.100 Hz; 16 Bit; Stereo
TOC of the extracted CD
Track | Start | Length | Start sector | End sector
---------------------------------------------------------
1 | 0:00.00 | 25:19.25 | 0 | 113949
2 | 25:19.25 | 11:07.32 | 113950 | 164006
3 | 36:26.57 | 26:54.60 | 164007 | 285116
4 | 63:21.42 | 12:50.48 | 285117 | 342914
Range status and errors
Selected range
Filename K:EACGiuliniCarlo Maria Giulini - The Chicago Years ( CD 3 of 4 ).wav
Peak level 100.0 %
Range quality 99.9 %
Copy CRC AC66839D
Copy OK
No errors occurred
AccurateRip summary
Track 1 accurately ripped (confidence 12) [971BA483]
Track 2 accurately ripped (confidence 12) [296F50FD]
Track 3 accurately ripped (confidence 12) [42176A73]
Track 4 accurately ripped (confidence 12) [E9AE188B]
All tracks accurately ripped
End of status report
Exact Audio Copy V0.99 prebeta 5 from 4. May 2009
EAC extraction logfile from 26. August 2010, 16:25
CSO Carlo Maria Giulini / Brahms Symphony No.4 ( II~ IV) - Stravinsky Firebird Petrushka Suites
Used drive : ASUS DRW-1814BLT Adapter: 2 ID: 2
Read mode : Secure
Utilize accurate stream : Yes
Defeat audio cache : Yes
Make use of C2 pointers : No
Read offset correction : 6
Overread into Lead-In and Lead-Out : No
Fill up missing offset samples with silence : Yes
Delete leading and trailing silent blocks : No
Null samples used in CRC calculations : Yes
Used interface : Native Win32 interface for Win NT & 2000
Used output format : Internal WAV Routines
Sample format : 44.100 Hz; 16 Bit; Stereo
TOC of the extracted CD
Track | Start | Length | Start sector | End sector
---------------------------------------------------------
1 | 0:00.00 | 12:21.67 | 0 | 55641
2 | 12:21.67 | 7:00.08 | 55642 | 87149
3 | 19:22.00 | 10:56.15 | 87150 | 136364
4 | 30:18.15 | 3:21.30 | 136365 | 151469
5 | 33:39.45 | 1:40.25 | 151470 | 158994
6 | 35:19.70 | 5:45.52 | 158995 | 184921
7 | 41:05.47 | 5:08.48 | 184922 | 208069
8 | 46:14.20 | 3:46.17 | 208070 | 225036
9 | 50:00.37 | 3:19.23 | 225037 | 239984
10 | 53:19.60 | 2:36.00 | 239985 | 251684
11 | 55:55.60 | 4:24.42 | 251685 | 271526
12 | 60:20.27 | 7:11.23 | 271527 | 303874
13 | 67:31.50 | 10:18.00 | 303875 | 350224
Range status and errors
Selected range
Filename K:EACGiuliniCarlo Maria Giulini - The Chicago Years ( CD 4 of 4 ).wav
Peak level 99.9 %
Range quality 100.0 %
Copy CRC C0B75EE5
Copy OK
No errors occurred
AccurateRip summary
Track 1 accurately ripped (confidence 11) [BC418FE3]
Track 2 accurately ripped (confidence 11) [C5A5987E]
Track 3 accurately ripped (confidence 11) [CF071F32]
Track 4 accurately ripped (confidence 11) [454213DA]
Track 5 accurately ripped (confidence 11) [7D6C060A]
Track 6 accurately ripped (confidence 11) [900ABF08]
Track 7 accurately ripped (confidence 11) [E4C1A217]
Track 8 accurately ripped (confidence 11) [9EF3C02B]
Track 9 accurately ripped (confidence 11) [9B2E4A2C]
Track 10 accurately ripped (confidence 11) [B3EDE4AF]
Track 11 accurately ripped (confidence 10) [5B99ECD1]
Track 12 accurately ripped (confidence 11) [CF1868CE]
Track 13 accurately ripped (confidence 10) [FAA790A5]
All tracks accurately ripped
End of status report
Download Carlo Maria Giulini - The Chicago Recordings :
Fileserve.com:
Hotfile.com
Pass: israbox.download
All thanks go to the original Publicist "stealthinua"
If you'll find that my links are dead please let me know through the Private Messages.
Please DO NOT MIRROR



Alternative download links

Part 1 Part 2 Part 3 Part 4 Part 5 Part 6 Part 7 Part 8 Part 1 Part 2 Part 3 Part 4 Part 5 Part 6 Part 7 Part 8

Related MP3 FLAC to Carlo Maria Giulini - The Chicago Recordings
Feedback
All rights reserved.
WEBBG.com © 2000-2018