The Association - And Then... Along Comes The Association (19662017) HDtracks
MP3 FLAC WMA APE HD

The Association - And Then... Along Comes The Association (19662017) HDtracks

Artist: The Association
Title: And Then... Along Comes The Association
Year Of Release: 2017
Label: Rhino/Warner Bros. Records
Genre: Pop/Rock, Vocal, Sunshine Pop, Baroque Pop
Quality: FLAC (tracks) [24Bit/192kHz]
Total Time: 32:46
Total Size: 1,48 Gb (Front Cover)
WebSite:

"And Then... Along Comes the Association" is the debut studio album by the American sunshine pop band the Association, and was released on Valiant Records, in July 1966 (see 1966 in music). It became one of the top selling LPs in America, peaking at number five, and remains the Association's most successful album release, with the exception of their Greatest Hits compilation. The album's success was primarily credited to the inclusion of their two U.S. hits "Along Comes Mary" and "Cherish", which peaked at number seven and number one respectively on the Billboard Hot 100, and were among the most-played songs on AM radio in 1966. The album was preceded by a few non-LP singles as the Association struggled to establish themselves a commercial presence. Moving from the Jubilee record label to Valiant Records, the group released a cover version of Bob Dylan's "One Too Many Mornings", which received attention from Curt Boettcher. Boettcher, who had previously worked with the folk rock group The GoldeBriars, and demoed "Along Comes Mary" with lead guitarist Jules Alexander, was brought in by the group to steer the Association in a pop rock musical direction. Aside from "Along Comes Mary", the sessions with Boettcher provided the band with the song's B-side, "Your Own Love", and two other tracks that are featured on the album "Remember" and "I'll Be Your Man". The Association yielded some of the instrumental playing on And Then... Along Comes the Association to top L.A. session musicians, including guitarist Mike Deasy (who would continue to play on other Association albums), bassist Jerry Scheff, and percussionists Jim Troxel and Toxey French. And Then... Along Comes the Association saw the group experiment with luscious vocal harmonies that anticipated the musical textures of Bottecher's later groups the Millennium and Sagittarius. In addition, the album incorporated a wide-assortment of influences, including folk rock, psychedelia, Baroque pop, and remains a cornerstone of sunshine pop. Along with the hit singles "Along Comes Mary" and "Cherish", notable tracks on the album include the reflective "Enter the Young" and the Addrissi brothers' "Don't Blame It on Me". The partnership between the Association and Boettcher—while innovative and commercially successful—was cut short after Boettcher began to overreach his authority in the group's musical direction. For their sophomore effort, Renaissance, the Association recruited Jerry Yester to replace Boettcher as producer. ~Wikipedia~
Release of this album: 1966, July [LP Valiant Records, Cat.# VLS 25002, USA]
Release of this HDtracks edition: 2017 [Label: Rhino/Warner Bros. Records]
Note: Remastered
(p) 1966 Warner Bros Records
(c) 1966 Warner Bros Records, Marketed by Rhino Entertainment Co. A Warner Music Group Co.

Credits:

Design [Album Designed By] – Peter Whorf Graphics
Engineer – Gary Paxton (tracks: 1 to 12), Pete Romano (tracks: 1 to 12)
Photography By [Cover] – Fred Poore
Producer – Curt Boettcher (tracks: 1 to 12)


Tracklist:

01. Enter The Young (02:46)
02. Your Own Love (02:23)
03. Don't Blame It On Me (02:32)
04. Blistered (01:54)
05. I'll Be Your Man (02:53)
06. Along Comes Mary (02:54)
07. Cherish (03:29)
08. Standing Still (02:49)
09. Message Of Our Love (04:06)
10. Round Again (01:51)
11. Remember (02:37)
12. Changes (02:34)

--------------------------------------------------------------------------------
Analyzed: The Association / And Then... Along Comes The Association (Remastered)
--------------------------------------------------------------------------------

DR Peak RMS Duration Track
--------------------------------------------------------------------------------
DR10 -0.43 dB -13.77 dB 2:46 01-Enter The Young (Remastered)
DR10 -0.65 dB -13.77 dB 2:23 02-Your Own Love (Remastered)
DR11 -0.42 dB -13.16 dB 2:32 03-Don't Blame It On Me (Remastered)
DR10 -0.09 dB -13.19 dB 1:54 04-Blistered (Remastered)
DR10 -0.28 dB -13.06 dB 2:53 05-I'll Be Your Man (Remastered)
DR11 -0.07 dB -13.34 dB 2:54 06-Along Comes Mary (Remastered)
DR10 -0.37 dB -11.59 dB 3:29 07-Cherish (Remastered)
DR10 0.00 dB -12.05 dB 2:49 08-Standing Still (Remastered)
DR11 -0.33 dB -14.68 dB 4:06 09-Message Of Our Love (Remastered)
DR9 -1.03 dB -13.36 dB 1:51 10-Round Again (Remastered)
DR10 -0.15 dB -14.16 dB 2:37 11-Remember (Remastered)
DR10 -0.38 dB -12.24 dB 2:34 12-Changes (Remastered)
--------------------------------------------------------------------------------

Number of tracks: 12
Official DR value: DR10

Samplerate: 192000 Hz
Channels: 2
Bits per sample: 24
Bitrate: 6141 kbps
Codec: FLAC
================================================================================
FLAC 24/192 DOWNLOAD ~ Download 24/192 FLAC

Turbobit
|

password: BlondStyle



Alternative download links

Part 1 Part 2

Related MP3 FLAC to The Association - And Then... Along Comes The Association (19662017) HDtracks
Feedback
All rights reserved.
WEBBG.com © 2000-2018