Pete Haycock (ex-Climax Blues Band) - Guitar And Son (1987)
MP3 FLAC WMA APE HD

Pete Haycock (ex-Climax Blues Band) - Guitar And Son (1987)

Artist: Pete Haycock (ex-Climax Blues Band)
Title Of Album: Guitar And Son
Year Of Release: 1987
Label: I.R.S. Records
Genre: Rock
Quality: FLAC (tracks+.cue) + log
Bitrate: Lossless
Total Time: 40:28
Total Size: 262 Mb
Pete Haycock (born Peter John Haycock, 4 March 1951, Stafford, Staffordshire, England) is a guitarist and composer who started his career as lead guitarist and vocalist with the Climax Chicago Blues Band. Born at 63 Tixall Road, Stafford, Staffordshire.
Tracklist:
1 Liberty 4:22
2 Lucienne 3:41
3 Spikes 3:46
4 Terry Anne 5:50
5 Dr. Brown I Presume 3:35
6 The Claymore 3:39
7 Down To Bay Six 3:47
8 Rebecca 4:11
9 The New York Stakes 5:18
10 Follow That Frog 3:05
Exact Audio Copy V0.99 prebeta 5 from 4. May 2009
EAC extraction logfile from 7. July 2010, 21:16
Pete Haycock / Guitar And Son
Used drive : _NEC DVD+RW ND-6100A Adapter: 1 ID: 0
Read mode : Secure
Utilize accurate stream : Yes
Defeat audio cache : Yes
Make use of C2 pointers : No
Read offset correction : 48
Overread into Lead-In and Lead-Out : No
Fill up missing offset samples with silence : Yes
Delete leading and trailing silent blocks : No
Null samples used in CRC calculations : Yes
Used interface : Native Win32 interface for Win NT & 2000
Gap handling : Appended to previous track
Used output format : User Defined Encoder
Selected bitrate : 320 kBit/s
Quality : High
Add ID3 tag : No
Command line compressor : C:Program FilesExact Audio CopyFlacflac.exe
Additional command line options : -8 -A tukey(0.25) -A gauss(0.1875) -b 4096 -V -T "artist=%a" -T "title=%t" -T "album=%g" -T "date=%y" -T "tracknumber=%n" -T "genre=%m" %s --sector-align
TOC of the extracted CD
Track | Start | Length | Start sector | End sector
---------------------------------------------------------
1 | 0:00.00 | 4:21.55 | 0 | 19629
2 | 4:21.55 | 3:41.62 | 19630 | 36266
3 | 8:03.42 | 3:47.05 | 36267 | 53296
4 | 11:50.47 | 5:50.45 | 53297 | 79591
5 | 17:41.17 | 3:36.28 | 79592 | 95819
6 | 21:17.45 | 3:39.12 | 95820 | 112256
7 | 24:56.57 | 3:47.25 | 112257 | 129306
8 | 28:44.07 | 4:11.70 | 129307 | 148201
9 | 32:56.02 | 5:18.13 | 148202 | 172064
10 | 38:14.15 | 3:02.40 | 172065 | 185754
Track 1
Filename C:KlaarPete Haycock - Guitar And Son Flac1 - Liberty.wav
Pre-gap length 0:00:02.00
Peak level 95.2 %
Track quality 100.0 %
Test CRC CC1CD8D4
Copy CRC CC1CD8D4
Copy OK
Track 2
Filename C:KlaarPete Haycock - Guitar And Son Flac2 - Lucienne.wav
Pre-gap length 0:00:01.08
Peak level 94.6 %
Track quality 99.9 %
Test CRC 76C53445
Copy CRC 76C53445
Copy OK
Track 3
Filename C:KlaarPete Haycock - Guitar And Son Flac3 - Spikes.wav
Peak level 97.8 %
Track quality 100.0 %
Test CRC BDC8B749
Copy CRC BDC8B749
Copy OK
Track 4
Filename C:KlaarPete Haycock - Guitar And Son Flac4 - Terry Anne.wav
Peak level 100.0 %
Track quality 100.0 %
Test CRC EDAEBAD8
Copy CRC EDAEBAD8
Copy OK
Track 5
Filename C:KlaarPete Haycock - Guitar And Son Flac5 - Dr. Brown I Presume.wav
Peak level 95.7 %
Track quality 100.0 %
Test CRC E2EFBF8B
Copy CRC E2EFBF8B
Copy OK
Track 6
Filename C:KlaarPete Haycock - Guitar And Son Flac6 - The Claymore.wav
Pre-gap length 0:00:01.23
Peak level 93.7 %
Track quality 99.9 %
Test CRC 3BF49C31
Copy CRC 3BF49C31
Copy OK
Track 7
Filename C:KlaarPete Haycock - Guitar And Son Flac7 - Down To Bay Six.wav
Peak level 90.0 %
Track quality 100.0 %
Test CRC 14F4B74B
Copy CRC 14F4B74B
Copy OK
Track 8
Filename C:KlaarPete Haycock - Guitar And Son Flac8 - Rebecca.wav
Pre-gap length 0:00:01.45
Peak level 86.9 %
Track quality 100.0 %
Test CRC 6F88B7B4
Copy CRC 6F88B7B4
Copy OK
Track 9
Filename C:KlaarPete Haycock - Guitar And Son Flac9 - The New York Stakes.wav
Pre-gap length 0:00:01.17
Peak level 100.0 %
Track quality 100.0 %
Test CRC 0F02203C
Copy CRC 0F02203C
Copy OK
Track 10
Filename C:KlaarPete Haycock - Guitar And Son Flac10 - Follow That Frog.wav
Pre-gap length 0:00:01.10
Peak level 100.0 %
Track quality 100.0 %
Test CRC 38EA300F
Copy CRC 38EA300F
Copy OK
No errors occurred
End of status report
FileSonic
Wupload



Alternative download links

DOWNLOAD

Related MP3 FLAC to Pete Haycock (ex-Climax Blues Band) - Guitar And Son (1987)
Feedback
All rights reserved.
WEBBG.com © 2000-2018