Khun-In - Ranad Bangkok 2 (2005)
MP3 FLAC WMA APE HD

Khun-In - Ranad Bangkok 2 (2005)

Artist: Khun-In
Title Of Album: Ranad Bangkok 2
Year Of Release: 2005
Label: Here Ltd.
Genre: Newage, Piano, Thai-Xylophone
Quality: FLAC (image+.cue) + log
Bitrate: Lossless
Total Time: 49:13
Total Size: 257 Mb
In our globalized world old traditions are dying out.
The music is dominated by anglo-american sounds,
but Asia is striking back.
Tracklist:
01. Lao Seang Thean [0:03:24.51]
02. Lao Lum Pang Yai [0:05:56.19]
03. Pao Ka Tob Mai [0:06:24.53]
04. Lao Khruan [0:04:12.51]
05. Lao Duang Dok Mai [0:03:33.55]
06. Lao Ka Tae [0:03:36.16]
07. Song Fung Kong [0:03:17.59]
08. Lao Ka Sae [0:04:03.03]
09. Hgeaw Rum Rook [0:03:35.04]
10. Lao Pan (Solo) [0:10:20.12]
11. Hidden Track (Ad.) [0:00:49.02]
Exact Audio Copy V1.0 beta 1 from 15. November 2010
EAC extraction logfile from 11. May 2011, 18:07
Khun-In / Ranad Bangkok 2
Used drive : PIONEER DVD-RW DVR-219L Adapter: 0 ID: 1
Read mode : Secure
Utilize accurate stream : Yes
Defeat audio cache : Yes
Make use of C2 pointers : No
Read offset correction : 6
Overread into Lead-In and Lead-Out : No
Fill up missing offset samples with silence : Yes
Delete leading and trailing silent blocks : No
Null samples used in CRC calculations : Yes
Used interface : Native Win32 interface for Win NT & 2000
Used output format : Internal WAV Routines
Sample format : 44.100 Hz; 16 Bit; Stereo
TOC of the extracted CD
Track | Start | Length | Start sector | End sector
---------------------------------------------------------
1 | 0:00.00 | 3:24.51 | 0 | 15350
2 | 3:24.51 | 5:56.19 | 15351 | 42069
3 | 9:20.70 | 6:24.53 | 42070 | 70922
4 | 15:45.48 | 4:12.51 | 70923 | 89873
5 | 19:58.24 | 3:33.55 | 89874 | 105903
6 | 23:32.04 | 3:36.16 | 105904 | 122119
7 | 27:08.20 | 3:17.59 | 122120 | 136953
8 | 30:26.04 | 4:03.03 | 136954 | 155181
9 | 34:29.07 | 3:35.04 | 155182 | 171310
10 | 38:04.11 | 10:20.12 | 171311 | 217822
11 | 48:24.23 | 0:49.02 | 217823 | 221499
Range status and errors
Selected range
Filename D:Audio Creator Music LibraryKhun-In - Ranad Bangkok 2.wav
Peak level 92.0 %
Extraction speed 0.0 X
Range quality 100.0 %
Test CRC 6C1CDABB
Copy CRC 6C1CDABB
Copy OK
No errors occurred
AccurateRip summary
Track 1 accurately ripped (confidence 1) [FEAAA119]
Track 2 accurately ripped (confidence 1) [3C7D6F94]
Track 3 accurately ripped (confidence 1) [1EA668D8]
Track 4 accurately ripped (confidence 1) [C1EC22DD]
Track 5 accurately ripped (confidence 1) [F5054F2B]
Track 6 accurately ripped (confidence 1) [8CA721B0]
Track 7 accurately ripped (confidence 1) [DD7BAEDC]
Track 8 accurately ripped (confidence 1) [FC31812D]
Track 9 accurately ripped (confidence 1) [41F675CD]
Track 10 accurately ripped (confidence 1) [0CCE16B8]
Track 11 accurately ripped (confidence 1) [FC1DB82A]
All tracks accurately ripped
End of status report
FileSonic
Oron



Alternative download links

DOWNLOAD

Related MP3 FLAC to Khun-In - Ranad Bangkok 2 (2005)
Feedback
All rights reserved.
WEBBG.com © 2000-2018