Tiziana Simona, Mal Waldron - Flakes (1989)
MP3 FLAC WMA APE HD

Tiziana Simona, Mal Waldron - Flakes (1989)

Artist: Tiziana Simona, Mal Waldron
Title Of Album: Flakes
Year Of Release: 1989
Label: ITM Records
Genre: Vocal Jazz, Contemporary Jazz
Quality: APE (image+.cue) + log
Bitrate: Lossless
Total Time: 00:48:01
Total Size: 199 Mb
Album «Flakes» includes 9 great jazz compositions. Not to impress jazz fans. I recommend!
Tracklist:
1. Flakes to Mark Rothko 5:53
2. Little One 4:14
3. Bo il Cinese (Nowhere Ever After) 4:26
4. Flowers for Albert 3:55
5. Shadow Figures 5:46
6. Rose Selavy 7:25
7. Left Alone 6:05
8. Fling 7:00
9. Mari 3:14
Exact Audio Copy V1.0 beta 1 from 15. November 2010
EAC extraction logfile from 1. June 2011, 18:02
Tiziana Simona / Flakes
Used drive : TSSTcorpDVD+-RW TS-L532B Adapter: 1 ID: 0
Read mode : Secure
Utilize accurate stream : Yes
Defeat audio cache : Yes
Make use of C2 pointers : No
Read offset correction : 704
Overread into Lead-In and Lead-Out : No
Fill up missing offset samples with silence : Yes
Delete leading and trailing silent blocks : No
Null samples used in CRC calculations : Yes
Used interface : Native Win32 interface for Win NT & 2000
Used output format : Internal WAV Routines
Sample format : 44.100 Hz; 16 Bit; Stereo
TOC of the extracted CD
Track | Start | Length | Start sector | End sector
---------------------------------------------------------
1 | 0:00.00 | 5:53.67 | 0 | 26541
2 | 5:53.67 | 4:14.05 | 26542 | 45596
3 | 10:07.72 | 4:26.03 | 45597 | 65549
4 | 14:34.00 | 3:55.47 | 65550 | 83221
5 | 18:29.47 | 5:46.73 | 83222 | 109244
6 | 24:16.45 | 7:25.00 | 109245 | 142619
7 | 31:41.45 | 6:05.40 | 142620 | 170034
8 | 37:47.10 | 7:00.15 | 170035 | 201549
9 | 44:47.25 | 3:14.07 | 201550 | 216106
Range status and errors
Selected range
Filename C:Documents and SettingsVBMy DocumentsBARIN99Tiziana Simona - FlakesTiziana Simona - Flakes.wav
Peak level 93.3 %
Extraction speed 0.1 X
Range quality 100.0 %
Copy CRC 3589F8CD
Copy OK
No errors occurred
AccurateRip summary
Track 1 not present in database
Track 2 not present in database
Track 3 not present in database
Track 4 not present in database
Track 5 not present in database
Track 6 not present in database
Track 7 not present in database
Track 8 not present in database
Track 9 not present in database
None of the tracks are present in the AccurateRip database
End of status report
FileSonic
Wupload



Alternative download links

DOWNLOAD

Related MP3 FLAC to Tiziana Simona, Mal Waldron - Flakes (1989)
Feedback
All rights reserved.
WEBBG.com © 2000-2018