Kruk - It Will Not Come Back (2011)
MP3 FLAC WMA APE HD

Kruk - It Will Not Come Back (2011)

Artist: Kruk
Title Of Album: It Will Not Come Back
Year Of Release: 2011
Label: Metal Mind Productions
Genre: Hard Rock
Quality: APE (image+.cue) + log
Bitrate: Lossless
Total Time: 67:01
Total Size: 482 Mb
KRUK is a Polish Hard Rock band, formed in 2001 by Piotr Brzychcy (guitar) and Krzysztof Walczyk (hammond).
Tracklist:
01. Intro (0:26)
02. Now When You Cry (5:09)
03. In Reverie (5:50)
04. Imagination (6:49)
05. Embarce Your Silence (8:07)
06. Forever (7:00)
07. Here On Earth (7:36)
08. Cold Wall (4:18)
09. Every Night (5:14)
10. It Will Not Come Back (12:30)
11. Simply The Best (Tina Turner) (Bonus Track) (4:00)
Exact Audio Copy V0.99 prebeta 5 from 4. May 2009
EAC extraction logfile from 23. July 2011, 19:01
Kruk / It Will Not Come Back
Used drive : TSSTcorpCDDVDW SH-S223C Adapter: 1 ID: 1
Read mode : Secure
Utilize accurate stream : Yes
Defeat audio cache : Yes
Make use of C2 pointers : No
Read offset correction : 697
Overread into Lead-In and Lead-Out : No
Fill up missing offset samples with silence : Yes
Delete leading and trailing silent blocks : No
Null samples used in CRC calculations : Yes
Used interface : Installed external ASPI interface
Used output format : Internal WAV Routines
Sample format : 44.100 Hz; 16 Bit; Stereo
TOC of the extracted CD
Track | Start | Length | Start sector | End sector
---------------------------------------------------------
1 | 0:00.00 | 0:25.74 | 0 | 1948
2 | 0:25.74 | 5:09.16 | 1949 | 25139
3 | 5:35.15 | 5:50.49 | 25140 | 51438
4 | 11:25.64 | 6:49.40 | 51439 | 82153
5 | 18:15.29 | 8:07.00 | 82154 | 118678
6 | 26:22.29 | 7:00.00 | 118679 | 150178
7 | 33:22.29 | 7:35.74 | 150179 | 184377
8 | 40:58.28 | 4:18.00 | 184378 | 203727
9 | 45:16.28 | 5:14.52 | 203728 | 227329
10 | 50:31.05 | 12:30.00 | 227330 | 283579
11 | 63:01.05 | 4:00.01 | 283580 | 301580
Range status and errors
Selected range
Filename E:Rip by GriffonNestKruk - It Will Not Come Back It Will Not Come Back.wav
Peak level 100.0 %
Range quality 100.0 %
Copy CRC 7F0F8F29
Copy OK
No errors occurred
End of status report
FileSonic
Wupload



Alternative download links

DOWNLOAD

Related MP3 FLAC to Kruk - It Will Not Come Back (2011)
Feedback
All rights reserved.
WEBBG.com © 2000-2018