Marcus Malone - Let The Sunshine In (2011)
MP3 FLAC WMA APE HD

Marcus Malone - Let The Sunshine In (2011)

  • Genre: Music, Blues, FLAC / APE
  • Formats: MP3 FLAC WMA HD APE
  • Album Size: 1637 mb.
  • Archive: ZIP RAR
Artist: Marcus Malone
Title Of Album: Let The Sunshine In
Year Of Release: 2011
Label: Redline Music
Genre: blues
Quality: APE (image+.cue) + log
Bitrate: Lossless
Total Time: 58:52
Total Size: 362 Mb
Marcus Malone is a hard rocker turned soulful blues man with a locker full of good songs, a road tested band and now an album worthy of his talent. But unlike many of his crossover rock/blues contemporaries this UK based Detroit rocker has got the kind of soulful voice that can turn even the most mundane lyrics into a tour de force.
Tracklist:
01. Let The Sunshine In 4:29
02. If I Had Another Chance 3:29
03. Back To Paradise 5:01
04. All That Love 2:30
05. Would It Matter 6:37
06. Heartbreak Kid 4:42
07. 99 Tears 3:17
08. Last Time 3:50
09. Bad Girls 4:06
10. She's My Girl 4:53
11. I Was A Fool 4:05
12. Make A Diffrence 3:04
13. Let The Sunshine In 4:28
14. To Love Somebody Gibb, Gibb 4:13
Exact Audio Copy V0.99 prebeta 5 from 4. May 2009
Отчёт EAC об извлечении, выполненном 23. июля 2011, 15:18
Marcus Malone / Let The Sunshine In
Дисковод: PIONEER DVD-RW DVR-215D Adapter: 3 ID: 0
Режим чтения : Достоверность
Использование точного потока : Да
Отключение кэша аудио : Да
Использование указателей C2 : Нет
Коррекция смещения при чтении : 48
Способность читать области Lead-in и Lead-out : Нет
Заполнение пропущенных сэмплов тишиной : Да
Удаление блоков с тишиной в начале и конце : Нет
При вычислениях CRC использовались нулевые сэмплы : Да
Интерфейс : Встроенный Win32-интерфейс для Win NT/2000
Выходной формат : Внутренние WAV-операции
Формат сэмплов : 44.100 Гц; 16 бит; стерео
TOC извлечённого CD
Трек | Старт | Длительность | Начальный сектор | Конечный сектор
---------------------------------------------------------------------
1 | 0:00.00 | 4:29.59 | 0 | 20233
2 | 4:29.59 | 3:29.64 | 20234 | 35972
3 | 7:59.48 | 5:01.60 | 35973 | 58607
4 | 13:01.33 | 2:30.13 | 58608 | 69870
5 | 15:31.46 | 6:37.33 | 69871 | 99678
6 | 22:09.04 | 4:42.08 | 99679 | 120836
7 | 26:51.12 | 3:17.74 | 120837 | 135685
8 | 30:09.11 | 3:50.54 | 135686 | 152989
9 | 33:59.65 | 4:06.23 | 152990 | 171462
10 | 38:06.13 | 4:53.38 | 171463 | 193475
11 | 42:59.51 | 4:05.47 | 193476 | 211897
12 | 47:05.23 | 3:04.52 | 211898 | 225749
13 | 50:10.00 | 4:28.71 | 225750 | 245920
14 | 54:38.71 | 4:13.35 | 245921 | 264930
Характеристики диапазона извлечения и сообщения об ошибках
Выбранный диапазон
Имя файла E:обработатьMarcus Malone - Let The Sunshine In.wav
Пиковый уровень 100.0 %
Качество диапазона 100.0 %
CRC копии A1422E9B
Копирование... OK
Ошибок не произошло
AccurateRip: сводка
Трек 1 нет в базе данных
Трек 2 нет в базе данных
Трек 3 нет в базе данных
Трек 4 нет в базе данных
Трек 5 нет в базе данных
Трек 6 нет в базе данных
Трек 7 нет в базе данных
Трек 8 нет в базе данных
Трек 9 нет в базе данных
Трек 10 нет в базе данных
Трек 11 нет в базе данных
Трек 12 нет в базе данных
Трек 13 нет в базе данных
Трек 14 нет в базе данных
Ни одного трека нет в базе AccurateRip
Конец отчёта
FileSonic
Wupload



Alternative download links

DOWNLOAD

Related MP3 FLAC to Marcus Malone - Let The Sunshine In (2011)
Feedback
All rights reserved.
WEBBG.com © 2000-2018