Maktub - Khronos (2002)
MP3 FLAC WMA APE HD

Maktub - Khronos (2002)

Free download links


Maktub - Khronos (2002) .zip
MP3 version ZIP archive

1862 downloads at 30 mb/s

Maktub - Khronos (2002) .zip
FLAC/APE version ZIP archive

943 downloads at 22 mb/s
Artist: Maktub
Title Of Album: Khronos
Year Of Release: 2002
Label: Ossia
Genre: Rock
Quality: FLAC (image+.cue) + log
Bitrate: Lossless
Total Time: 47:32
Total Size: 320 Mb
Maktub is a Seattle, Washington-based music group formed in the late 1990s that combines elements of hip-hop, rhythm and blues, soul, and funk, with a sprinkling of jazz and rock.
Tracklist:
01. You Can't Hide [0:03:31.71]
02. So Tired [0:03:20.62]
03. Give Me Some Time [0:03:23.62]
04. Baby Can't Wait [0:03:55.07]
05. We've Got Desire [0:03:41.26]
06. Just Like Murder [0:04:32.66]
07. See Clearly [0:05:47.30]
08. Say You Will [0:04:14.04]
09. No Quartet [0:08:04.40]
10. Then We'll Know [0:07:00.10]
Exact Audio Copy V0.99 prebeta 4 from 23. January 2008
Отчёт EAC об извлечении, выполненном 27. августа 2011, 8:19
Maktub / Khronos
Дисковод: ASUS DRW-1814BL Adapter: 1 ID: 0
Режим чтения : Достоверность
Использование точного потока : Да
Отключение кэша аудио : Да
Использование указателей C2 : Нет
Коррекция смещения при чтении : 6
Способность читать области Lead-in и Lead-out : Нет
Заполнение пропущенных сэмплов тишиной : Да
Удаление блоков с тишиной в начале и конце : Нет
При вычислениях CRC использовались нулевые сэмплы : Да
Интерфейс : Установленный внешний ASPI-интерфейс
Выходной формат : Пользовательский кодировщик
Выбранный битрейт : 1024 kBit/s
Качество : Высокий
Добавление ID3-тэга : Нет
Утилита сжатия : C:Program FilesExact Audio CopyFLACFLAC.EXE
Дополнительные параметры : -6 -V -T "ARTIST=%a" -T "TITLE=%t" -T "ALBUM=%g" -T "DATE=%y" -T "TRACKNUMBER=%n" -T "GENRE=%m" -T "COMMENT=%e" %s -o %d
TOC извлечённого CD
Трек | Старт | Длительность | Начальный сектор | Конечный сектор
---------------------------------------------------------------------
1 | 0:00.00 | 3:31.71 | 0 | 15895
2 | 3:31.71 | 3:20.62 | 15896 | 30957
3 | 6:52.58 | 3:23.62 | 30958 | 46244
4 | 10:16.45 | 3:55.07 | 46245 | 63876
5 | 14:11.52 | 3:41.26 | 63877 | 80477
6 | 17:53.03 | 4:32.66 | 80478 | 100943
7 | 22:25.69 | 5:47.30 | 100944 | 126998
8 | 28:13.24 | 4:14.04 | 126999 | 146052
9 | 32:27.28 | 8:04.40 | 146053 | 182392
10 | 40:31.68 | 7:00.10 | 182393 | 213902
Характеристики диапазона извлечения и сообщения об ошибках
Выбранный диапазон
Имя файла D:ТОР+Losslessmaktub'02Maktub - Khronos.wav
Пиковый уровень 99.8 %
Качество диапазона 100.0 %
CRC теста 18ABB913
CRC копии 18ABB913
Копирование... OK
Ошибок не произошло
Конец отчёта
FileSonic
Wupload



Alternative download links

DOWNLOAD

Related MP3 FLAC to Maktub - Khronos (2002)
Feedback
All rights reserved.
WEBBG.com © 2000-2018