Paul McCartney - Gold Singles Collection (1995)
MP3 FLAC WMA APE HD

Paul McCartney - Gold Singles Collection (1995)

Artist: Paul McCartney
Title Of Album: Gold Singles Collection
Year Of Release: 1995
Label: PVS Music 945073
Genre: Soft Rock
Quality: lossless
Bitrate: FLAC image, cue, log
Total Time: 01:11:43
Total Size: 422 MB (3%)
Tracklist

1. Simple As That (04:19)
2. Mull of Kintyre (04:44)
3. Oh Wooman, Oh Why (04:36)
4. C Moon (04:36)
5. Country Dreamer (03:11)
6. Check My Machine (05:51)
7. Loveliest Thing (04:00)
8. Zoo Gang (02:00)
9. Another Day (03:43)
10. Twice in a Lifetime (03:02)
11. I Lie Around (05:02)
12. Lunch Box/Odd Sox (03:50)
13. We All Stand Together (04:25)
14. Mama's Little Girl (03:43)
15. Goodnight Tonight (04:21)
16. Daytime Nightime Suffering (03:23)
17. Bridge on a River Suite (03:10)
18. Wonderful Christmastime (03:47)
Total time 01:11:43
Exact Audio Copy V0.99 prebeta 5 from 4. May 2009
Отчёт EAC об извлечении, выполненном 12. мая 2010, 23:23
Paul McCartney / Gold Singles Collection
Дисковод: _NEC DVD_RW ND-3540A Adapter: 0 ID: 1
Режим чтения : Достоверность
Использование точного потока : Да
Отключение кэша аудио : Да
Использование указателей C2 : Нет
Коррекция смещения при чтении : 48
Способность читать области Lead-in и Lead-out : Нет
Заполнение пропущенных сэмплов тишиной : Да
Удаление блоков с тишиной в начале и конце : Нет
При вычислениях CRC использовались нулевые сэмплы : Да
Интерфейс : Установленный внешний ASPI-интерфейс
Выходной формат : Пользовательский кодировщик
Выбранный битрейт : 768 kBit/s
Качество : Высокий
Добавление ID3-тэга : Нет
Утилита сжатия : C:Program FilesExact Audio CopyFLACFLAC.EXE
Дополнительные параметры : -6 -V -T "ARTIST=%a" -T "TITLE=%t" -T "ALBUM=%g" -T "DATE=%y" -T "TRACKNUMBER=%n" -T "GENRE=%m" -T "COMMENT=%e" %s -o %d
TOC извлечённого CD
Трек | Старт | Длительность | Начальный сектор | Конечный сектор
---------------------------------------------------------------------
1 | 0:00.30 | 4:19.27 | 30 | 19481
2 | 4:19.57 | 4:44.72 | 19482 | 40853
3 | 9:04.54 | 4:36.33 | 40854 | 61586
4 | 13:41.12 | 4:36.03 | 61587 | 82289
5 | 18:17.15 | 3:11.11 | 82290 | 96625
6 | 21:28.26 | 5:51.68 | 96626 | 123018
7 | 27:20.19 | 4:00.20 | 123019 | 141038
8 | 31:20.39 | 2:00.56 | 141039 | 150094
9 | 33:21.20 | 3:43.67 | 150095 | 166886
10 | 37:05.12 | 3:02.25 | 166887 | 180561
11 | 40:07.37 | 5:02.63 | 180562 | 203274
12 | 45:10.25 | 3:50.22 | 203275 | 220546
13 | 49:00.47 | 4:25.02 | 220547 | 240423
14 | 53:25.49 | 3:43.63 | 240424 | 257211
15 | 57:09.37 | 4:21.48 | 257212 | 276834
16 | 61:31.10 | 3:23.09 | 276835 | 292068
17 | 64:54.19 | 3:10.16 | 292069 | 306334
18 | 68:04.35 | 3:47.38 | 306335 | 323397
Характеристики диапазона извлечения и сообщения об ошибках
Выбранный диапазон
Имя файла M:раздачаPaul McCartney - Gold Singles CollectionPaul McCartney - Gold Singles Collection.wav
Пиковый уровень 99.5 %
Качество диапазона 99.9 %
CRC теста 18C9AD2F
CRC копии 18C9AD2F
Копирование... OK
Ошибок не произошло

AccurateRip: сводка

Трек 1 нет в базе данных
Трек 2 нет в базе данных
Трек 3 нет в базе данных
Трек 4 нет в базе данных
Трек 5 нет в базе данных
Трек 6 нет в базе данных
Трек 7 нет в базе данных
Трек 8 нет в базе данных
Трек 9 нет в базе данных
Трек 10 нет в базе данных
Трек 11 нет в базе данных
Трек 12 нет в базе данных
Трек 13 нет в базе данных
Трек 14 нет в базе данных
Трек 15 нет в базе данных
Трек 16 нет в базе данных
Трек 17 нет в базе данных
Трек 18 нет в базе данных

Ни одного трека нет в базе AccurateRip
Конец отчёта


Pass: home




Alternative download links



Related MP3 FLAC to Paul McCartney - Gold Singles Collection (1995)
Feedback
All rights reserved.
WEBBG.com © 2000-2018