Kenny Acosta - Full Moon On Blues Street (2007)
MP3 FLAC WMA APE HD

Kenny Acosta - Full Moon On Blues Street (2007)

  • Genre: Music, Blues, FLAC / APE
  • Formats: MP3 FLAC WMA HD APE
  • Album Size: 1587 mb.
  • Archive: ZIP RAR
Artist: Kenny Acosta
Title Of Album: Full Moon On Blues Street
Year Of Release: 2007
Label: Rockin' Camel Music
Genre: Blues
Quality: FLAC (image+.cue) + log
Bitrate: Lossless
Total Time: 00:52:35
Total Size: 315 Mb
On "FULL MOON ON BLUES STREET", his third release, KENNY ACOSTA on guitar and vocals, is joined by: SHAWN MANGUNO and BILL STEWART on drums; MIGUEL HERNANDEZ on bass; N C THURMAN on Hammond B3 organ and piano; and KEVIN MC KENDREE on Hammond B3 organ.
Tracklist:
01 - Nobody's Better Than You
02 - Hard Times
03 - Boogie Chillen
04 - Mr. Charlie
05 - Still Have The Blues For You
06 - Just To Have The Blues
07 - Louisiana
08 - Polk Salad
09 - The Thrill Is Gone
10 - House Of The Rising Sun
Exact Audio Copy V1.0 beta 2 from 29. April 2011
Отчёт EAC об извлечении, выполненном 10. августа 2011, 20:40
Acosta, Kenny / Full Moon On Blues Street
Дисковод: HL-DT-STDVDRAM GH22LS50 Adapter: 2 ID: 1
Режим чтения : Достоверность
Использование точного потока : Да
Отключение кэша аудио : Да
Использование указателей C2 : Нет
Коррекция смещения при чтении : 667
Способность читать области Lead-in и Lead-out : Нет
Заполнение пропущенных сэмплов тишиной : Да
Удаление блоков с тишиной в начале и конце : Нет
При вычислениях CRC использовались нулевые сэмплы : Да
Интерфейс : Установленный внешний ASPI-интерфейс
Выходной формат : Пользовательский кодировщик
Выбранный битрейт : 128 kBit/s
Качество : Высокий
Добавление ID3-тега : Нет
Утилита сжатия : C:Program FilesFLACflac.exe
Дополнительные параметры : -V -8 -T "Date=%year%" -T "Genre=%genre%" %source%
TOC извлечённого CD
Трек | Старт | Длительность | Начальный сектор | Конечный сектор
---------------------------------------------------------------------
1 | 0:00.00 | 5:42.14 | 0 | 25663
2 | 5:42.14 | 4:46.40 | 25664 | 47153
3 | 10:28.54 | 5:12.50 | 47154 | 70603
4 | 15:41.29 | 6:53.19 | 70604 | 101597
5 | 22:34.48 | 5:38.02 | 101598 | 126949
6 | 28:12.50 | 3:57.35 | 126950 | 144759
7 | 32:10.10 | 4:56.42 | 144760 | 167001
8 | 37:06.52 | 6:18.16 | 167002 | 195367
9 | 43:24.68 | 4:45.00 | 195368 | 216742
10 | 48:09.68 | 4:28.07 | 216743 | 236849
Характеристики диапазона извлечения и сообщения об ошибках
Выбранный диапазон
Имя файла I:NEWKenny Acosta - Full Moon On Blues Street (flac)Acosta, Kenny - Full Moon On Blues Street.wav
Пиковый уровень 99.8 %
Скорость извлечения 2.0 X
Качество диапазона 99.9 %
CRC теста 9CD1317F
CRC копии 9CD1317F
Копирование... OK
Ошибок не произошло
Конец отчёта
FileSonic
Wupload



Alternative download links

DOWNLOAD

Related MP3 FLAC to Kenny Acosta - Full Moon On Blues Street (2007)
Feedback
All rights reserved.
WEBBG.com © 2000-2018