Candye Kane - Best of Candye Kane (2011)
MP3 FLAC WMA APE HD

Candye Kane - Best of Candye Kane (2011)

  • Genre: Music, Blues, FLAC / APE
  • Formats: MP3 FLAC WMA HD APE
  • Album Size: 1301 mb.
  • Archive: ZIP RAR
Artist: Candye Kane
Title Of Album: Best of Candye Kane
Year Of Release: 2011
Label: Candye Kane
Genre: Blues, Blues Vocal, Swing
Quality: FLAC (image+.cue) + log
Bitrate: Lossless
Total Time: 1:17:39
Total Size: 463 Mb
A definitive collection of songwriter Candye Kane including unreleased and out of print selections.
his is a collectable, limited edition collection of released and unreleased tracks spanning Blues diva Candye Kane's 20 year career. Songs from her earliest, out of print releases including "Homecookin'," "Knockout," and "Swango." Her songs of empowerment have inspired people around the globe. This is the the best collection to date of Candye's personal favorites from her impressive catalogue of ten albums. This collection was compiled for her stage play "The Toughest Girl Alive" which had its world premiere debut at the Moxie Theater in San Diego on January 15, 2011
Tracklist:
01. You Need a Great Big Woman (4:37)
02. I'll Make It Right (3:50)
03. For Your Love (3:28)
04. Sharktown (5:32)
05. Babylon Boogie (2:37)
06. Please Tell Me a Lie (4:03)
07. I Didn't Listen to My Heart (3:28)
08. I'm Not Gonna Cry Today (2:49)
09. I Put a Hex On You (3:56)
10. Dance Hall Girls (3:43)
11. What Happened to the Girl I Met Here (3:30)
12. Superhero (4:49)
13. She Wore a Red Carnation (3:47)
14. I Got a Secret (2:49)
15. It Should Be Rainin' (5:10)
16. Love 'em and Forgive 'em (4:36)
17. I Could Fall for You (4:06)
18. Gifted in the Ways of Love (3:53)
19. I'm the Toughest Girl Alive (3:09)
20. Some Lazy Afternoon (3:36)
Exact Audio Copy V0.99 prebeta 4 from 23. January 2008
Отчёт EAC об извлечении, выполненном 5. марта 2011, 14:18
Candye Kane / Best of Candye Kane
Дисковод: PLEXTOR DVDR PX-880SA Adapter: 1 ID: 1
Режим чтения : Достоверность
Использование точного потока : Да
Отключение кэша аудио : Да
Использование указателей C2 : Нет
Коррекция смещения при чтении : 6
Способность читать области Lead-in и Lead-out : Нет
Заполнение пропущенных сэмплов тишиной : Да
Удаление блоков с тишиной в начале и конце : Нет
При вычислениях CRC использовались нулевые сэмплы : Да
Интерфейс : Установленный внешний ASPI-интерфейс
Выходной формат : Пользовательский кодировщик
Выбранный битрейт : 1024 kBit/s
Качество : Высокий
Добавление ID3-тэга : Нет
Утилита сжатия : C:Program FilesExact Audio CopyFLACFLAC.EXE
Дополнительные параметры : -5 -V -T "ARTIST=%a" -T "TITLE=%t" -T "ALBUM=%g" -T "DATE=%y" -T "TRACKNUMBER=%n" -T "GENRE=%m" -T "COMMENT=%e" %s -o %d
TOC извлечённого CD
Трек | Старт | Длительность | Начальный сектор | Конечный сектор
---------------------------------------------------------------------
1 | 0:00.00 | 4:37.43 | 0 | 20817
2 | 4:37.43 | 3:50.17 | 20818 | 38084
3 | 8:27.60 | 3:29.00 | 38085 | 53759
4 | 11:56.60 | 5:32.57 | 53760 | 78716
5 | 17:29.42 | 2:37.44 | 78717 | 90535
6 | 20:07.11 | 4:03.41 | 90536 | 108801
7 | 24:10.52 | 3:28.14 | 108802 | 124415
8 | 27:38.66 | 2:49.62 | 124416 | 137152
9 | 30:28.53 | 3:56.53 | 137153 | 154905
10 | 34:25.31 | 3:43.23 | 154906 | 171653
11 | 38:08.54 | 3:30.35 | 171654 | 187438
12 | 41:39.14 | 4:49.61 | 187439 | 209174
13 | 46:29.00 | 3:47.17 | 209175 | 226216
14 | 50:16.17 | 2:49.54 | 226217 | 238945
15 | 53:05.71 | 5:10.13 | 238946 | 262208
16 | 58:16.09 | 4:36.41 | 262209 | 282949
17 | 62:52.50 | 4:07.01 | 282950 | 301475
18 | 66:59.51 | 3:53.61 | 301476 | 319011
19 | 70:53.37 | 3:09.07 | 319012 | 333193
20 | 74:02.44 | 3:36.47 | 333194 | 349440
Характеристики диапазона извлечения и сообщения об ошибках
Выбранный диапазон
Имя файла I:Candye Kane-Best of Candye Kane(flac)Candye Kane - Best of Candye Kane.wav
Пиковый уровень 100.0 %
Качество диапазона 100.0 %
CRC теста 9D4ACFFC
CRC копии 9D4ACFFC
Копирование... OK
Ошибок не произошло
AccurateRip: сводка
Трек 1 нет в базе данных
Трек 2 нет в базе данных
Трек 3 нет в базе данных
Трек 4 нет в базе данных
Трек 5 нет в базе данных
Трек 6 нет в базе данных
Трек 7 нет в базе данных
Трек 8 нет в базе данных
Трек 9 нет в базе данных
Трек 10 нет в базе данных
Трек 11 нет в базе данных
Трек 12 нет в базе данных
Трек 13 нет в базе данных
Трек 14 нет в базе данных
Трек 15 нет в базе данных
Трек 16 нет в базе данных
Трек 17 нет в базе данных
Трек 18 нет в базе данных
Трек 19 нет в базе данных
Трек 20 нет в базе данных
Ни одного трека нет в базе AccurateRip
Конец отчёта
FileSonic.com
Turbobit.net



Alternative download links

DOWNLOAD

Related MP3 FLAC to Candye Kane - Best of Candye Kane (2011)
Feedback
All rights reserved.
WEBBG.com © 2000-2018