Lester Young - Kansas City Swing (1999)
MP3 FLAC WMA APE HD

Lester Young - Kansas City Swing (1999)

  • Genre: Music, Jazz, FLAC / APE
  • Formats: MP3 FLAC WMA HD APE
  • Album Size: 1554 mb.
  • Archive: ZIP RAR
Artist: Lester Young
Title Of Album: Kansas City Swing
Year Of Release: 1999
Label: Definitive Records
Genre: Swing, Mainstream Jazz
Quality: FLAC (tracks+.cue) + log
Bitrate: Lossless
Total Time: 71:54
Total Size: 261 Mb
Lester Willis Young (August 27, 1909 – March 15, 1959), nicknamed "Prez", was an American jazz tenor saxophonist and clarinetist. He also played trumpet, violin, and drums. Coming to prominence while a member of Count Basie's orchestra, Young was one of the most influential players on his instrument, playing with a cool tone and using sophisticated harmonies.
Tracklist:
01. Way Down Yonder In New Orleans (3:01)
02. Countless Blues (3:01)
03. Them There Eyes (3:00)
04. I Want A Little Girl (2:53)
05. Pagin' The Devil (2:57)
06. I Got Rhythm (4:12)
07. I'm Fer It Too (4:09)
08. Hello Babe (3:06)
09. Linger Awhile (3:07)
10. Just You Just Me (3:15)
11. I Never Knew (3:11)
12. Afternoon Of A Basie-ite (3:10)
13. Sometimes I'm Happy (3:08)
14. After Theatre Jump (4:44)
15. Six Cats And A Prince (4:12)
16. Lester Leaps Again (4:28)
17. Destination KC (3:53)
18. Three Little Words (2:56)
19. Jo-Jo (3:20)
20. Four O'Clock Drag (2:52)
21. I Got Rhythm (3:18)
Exact Audio Copy V0.99 prebeta 5 from 4. May 2009
EAC extraction logfile from 24. June 2010, 16:05
Lester Young / Kansas City Swing
Used drive : HL-DT-STDVD-ROM GDR8162B Adapter: 1 ID: 1
Read mode : Secure
Utilize accurate stream : Yes
Defeat audio cache : Yes
Make use of C2 pointers : No
Read offset correction : 102
Overread into Lead-In and Lead-Out : No
Fill up missing offset samples with silence : Yes
Delete leading and trailing silent blocks : No
Null samples used in CRC calculations : Yes
Used interface : Native Win32 interface for Win NT & 2000
Gap handling : Appended to previous track
Used output format : User Defined Encoder
Selected bitrate : 320 kBit/s
Quality : High
Add ID3 tag : No
Command line compressor : C:Program FilesExact Audio CopyFlacflac.exe
Additional command line options : -V -8 -T "artist=%a" -T "title=%t" -T "album=%g" -T "date=%y" -T "tracknumber=%n" -T "genre=%m" %s
TOC of the extracted CD
Track | Start | Length | Start sector | End sector
---------------------------------------------------------
1 | 0:00.00 | 3:01.35 | 0 | 13609
2 | 3:01.35 | 3:00.47 | 13610 | 27156
3 | 6:02.07 | 2:59.38 | 27157 | 40619
4 | 9:01.45 | 2:53.00 | 40620 | 53594
5 | 11:54.45 | 2:57.02 | 53595 | 66871
6 | 14:51.47 | 4:12.30 | 66872 | 85801
7 | 19:04.02 | 4:09.20 | 85802 | 104496
8 | 23:13.22 | 3:06.03 | 104497 | 118449
9 | 26:19.25 | 3:06.52 | 118450 | 132451
10 | 29:26.02 | 3:14.45 | 132452 | 147046
11 | 32:40.47 | 3:11.18 | 147047 | 161389
12 | 35:51.65 | 3:10.27 | 161390 | 175666
13 | 39:02.17 | 3:07.60 | 175667 | 189751
14 | 42:10.02 | 4:44.20 | 189752 | 211071
15 | 46:54.22 | 4:12.23 | 211072 | 229994
16 | 51:06.45 | 4:28.12 | 229995 | 250106
17 | 55:34.57 | 3:53.35 | 250107 | 267616
18 | 59:28.17 | 2:55.45 | 267617 | 280786
19 | 62:23.62 | 3:20.03 | 280787 | 295789
20 | 65:43.65 | 2:51.57 | 295790 | 308671
21 | 68:35.47 | 3:18.20 | 308672 | 323541
Track 1
Filename D:Lester Young - Kansas City Swing1. Way Down Yonder In New Orleans.wav
Pre-gap length 0:00:02.00
Peak level 95.7 %
Track quality 100.0 %
Test CRC 48D8F045
Copy CRC 48D8F045
Accurately ripped (confidence 1) [BF66D657]
Copy OK
Track 2
Filename D:Lester Young - Kansas City Swing2. Countless Blues.wav
Peak level 82.2 %
Track quality 99.9 %
Test CRC 02FFE63C
Copy CRC 02FFE63C
Accurately ripped (confidence 1) [E1CEEA6B]
Copy OK
Track 3
Filename D:Lester Young - Kansas City Swing3. Them There Eyes.wav
Peak level 59.2 %
Track quality 100.0 %
Test CRC CE7F9EB7
Copy CRC CE7F9EB7
Accurately ripped (confidence 1) [FC8B1225]
Copy OK
Track 4
Filename D:Lester Young - Kansas City Swing4. I Want A Little Girl.wav
Peak level 64.2 %
Track quality 99.9 %
Test CRC D9B7C7EB
Copy CRC D9B7C7EB
Accurately ripped (confidence 1) [9523F7D3]
Copy OK
Track 5
Filename D:Lester Young - Kansas City Swing5. Pagin' The Devil.wav
Peak level 64.0 %
Track quality 100.0 %
Test CRC 804CBCE7
Copy CRC 804CBCE7
Accurately ripped (confidence 1) [6E1A1BA4]
Copy OK
Track 6
Filename D:Lester Young - Kansas City Swing6. I Got Rhythm.wav
Peak level 55.3 %
Track quality 100.0 %
Test CRC 30CBF99D
Copy CRC 30CBF99D
Accurately ripped (confidence 1) [D8354E28]
Copy OK
Track 7
Filename D:Lester Young - Kansas City Swing7. I'm Fer It Too.wav
Peak level 58.1 %
Track quality 100.0 %
Test CRC 289B69BD
Copy CRC 289B69BD
Accurately ripped (confidence 1) [013CE0AB]
Copy OK
Track 8
Filename D:Lester Young - Kansas City Swing8. Hello Babe.wav
Peak level 58.7 %
Track quality 100.0 %
Test CRC 4A229F2E
Copy CRC 4A229F2E
Accurately ripped (confidence 1) [461B4AD0]
Copy OK
Track 9
Filename D:Lester Young - Kansas City Swing9. Linger Awhile.wav
Peak level 52.6 %
Track quality 100.0 %
Test CRC 726D026B
Copy CRC 726D026B
Accurately ripped (confidence 1) [E18E510F]
Copy OK
Track 10
Filename D:Lester Young - Kansas City Swing10. Just You Just Me.wav
Peak level 100.0 %
Track quality 99.9 %
Test CRC DB145727
Copy CRC DB145727
Accurately ripped (confidence 1) [2716C518]
Copy OK
Track 11
Filename D:Lester Young - Kansas City Swing11. I Never Knew.wav
Peak level 100.0 %
Track quality 99.9 %
Test CRC B4B04D0E
Copy CRC B4B04D0E
Accurately ripped (confidence 1) [7223EA88]
Copy OK
Track 12
Filename D:Lester Young - Kansas City Swing12. Afternoon Of A Basie-ite.wav
Peak level 100.0 %
Track quality 100.0 %
Test CRC 33683E74
Copy CRC 33683E74
Accurately ripped (confidence 1) [CE37B25D]
Copy OK
Track 13
Filename D:Lester Young - Kansas City Swing13. Sometimes I'm Happy.wav
Peak level 99.9 %
Track quality 100.0 %
Test CRC FF0D641A
Copy CRC FF0D641A
Accurately ripped (confidence 1) [81E77AD4]
Copy OK
Track 14
Filename D:Lester Young - Kansas City Swing14. After Theatre Jump.wav
Peak level 100.0 %
Track quality 99.9 %
Test CRC 1605760D
Copy CRC 1605760D
Accurately ripped (confidence 1) [C58C0115]
Copy OK
Track 15
Filename D:Lester Young - Kansas City Swing15. Six Cats And A Prince.wav
Peak level 100.0 %
Track quality 100.0 %
Test CRC BBF34141
Copy CRC BBF34141
Accurately ripped (confidence 1) [CFC9197F]
Copy OK
Track 16
Filename D:Lester Young - Kansas City Swing16. Lester Leaps Again.wav
Peak level 100.0 %
Track quality 100.0 %
Test CRC 2693555F
Copy CRC 2693555F
Accurately ripped (confidence 1) [0A8ADF22]
Copy OK
Track 17
Filename D:Lester Young - Kansas City Swing17. Destination KC.wav
Peak level 100.0 %
Track quality 100.0 %
Test CRC 98F2E768
Copy CRC 98F2E768
Accurately ripped (confidence 1) [F1164CB0]
Copy OK
Track 18
Filename D:Lester Young - Kansas City Swing18. Three Little Words.wav
Peak level 35.1 %
Track quality 100.0 %
Test CRC DD7C8E01
Copy CRC DD7C8E01
Accurately ripped (confidence 1) [1B29BAB8]
Copy OK
Track 19
Filename D:Lester Young - Kansas City Swing19. Jo-Jo.wav
Peak level 36.5 %
Track quality 100.0 %
Test CRC F6269FFA
Copy CRC F6269FFA
Accurately ripped (confidence 1) [BDDB43EA]
Copy OK
Track 20
Filename D:Lester Young - Kansas City Swing20. Four O'Clock Drag.wav
Peak level 39.5 %
Track quality 100.0 %
Test CRC A755ED9C
Copy CRC A755ED9C
Accurately ripped (confidence 1) [D93BAE2A]
Copy OK
Track 21
Filename D:Lester Young - Kansas City Swing21. I Got Rhythm.wav
Peak level 49.1 %
Track quality 99.9 %
Test CRC 1D86C94E
Copy CRC 1D86C94E
Accurately ripped (confidence 1) [7880920F]
Copy OK
All tracks accurately ripped
No errors occurred
End of status report
FileSonic
Wupload



Alternative download links

DOWNLOAD

Related MP3 FLAC to Lester Young - Kansas City Swing (1999)
Feedback
All rights reserved.
WEBBG.com © 2000-2018