Brad Mehldau - Art of the Trio, Vol. 5: Progression (2001)
MP3 FLAC WMA APE HD

Brad Mehldau - Art of the Trio, Vol. 5: Progression (2001)

  • Genre: Music, Jazz, FLAC / APE
  • Formats: MP3 FLAC WMA HD APE
  • Album Size: 1887 mb.
  • Archive: ZIP RAR
Artist: Brad Mehldau
Title Of Album: Art of the Trio, Vol. 5: Progression
Year Of Release: 2001
Label: Warner Bros. Records
Genre: Jazz
Quality: FLAC (Tracks,cue,log,scans) | MP3
Bitrate: lossless | 320kbps
Total Time: CD1 69:32, CD2 66:54
Total Size: 813 mb/327 mb (+5%rec)
Tracklist
CD1
1. The More I See You 10:05
2. Dream's Monk 11:21
3. The Folks Who Live On The Hill 9:50
4. Alone Together 15:01
5. It Might As Well Be Spring 2:48
6. Cry Me A River 8:50
7. River Man 11:29
CD2
1. Quit 7:13
2. Secret Love 10:06
3. Sublation 14:58
4. Resignation 8:39
5. Long Ago And Far Away 14:50
6. How Long Has This Been Going On 10:44
[b]Personel[/b]:
Brad Mehldau — piano
Larry Grenadier — bass
Jorge Rossy — drums
On this, Brad Mehldau's fifth installment of trio records, he returns to his jazzier roots by playing a series of standard tunes including "Long Ago and Far Away," "Alone Together," and "How Long Has This Been Going On." Recorded live at the Village Vanguard, this two-disc set offers listeners 13 chances to hear this band's cerebral swing. The opening track, the Mack Gordon/Harry Warren tune, "The More I See You" shows off Mehldau's improvisational skill as he whips around the keyboard, playing flurries of notes.
Other songs such as "Cry Me A River" bring out Mehldau's experimental edge, as he employs a series of soft yet sharp accents on the piano. Sometimes lyrical, sometimes percussive, Mehldau playing runs the gamut from familiar jazz stylings to eccentric, free-floating detours. Only true fans only will spend the time to read Mehldau's liner notes though. A dry, lengthy discourse on music and mankind--squeezed into a nine-point font--gives the feeling that Mehldau is digging in a little deeper than may be necessary.
EAC extraction logfile from 12. July 2005, 19:47 for CD
Brad Mehldau / Progression - The Art of the Trio, vol. 5 - I
Used drive : PLEXTOR CD-R PREMIUM Adapter: 1 ID: 0
Read mode : Secure with NO C2, accurate stream, disable cache
Read offset correction : 30
Overread into Lead-In and Lead-Out : Yes
Used output format : E:ProgrammiExact Audio Copy 0.95Encodersflac.exe (User Defined Encoder)
224 kBit/s
Additional command line options : -8 -V -T "artist=%a" -T "title=%t" -T "album=%g" -T "date=%y" -T "tracknumber=%n" -T "genre=%m" -T "comment=Exact Audio Copy 0.95 pb5 Secure Mode / FLAC q8 v. 1.1.2" %s
Other options :
Fill up missing offset samples with silence : No
Delete leading and trailing silent blocks : No
Installed external ASPI interface
Track 1
Filename D:SeedBrad Mehldau - Progression (The Art of the Trio, vol. 5) - 2001 [FLAC] {2CD} {by Lontananza}Disc 11 - The more I see you.wav
Pre-gap length 0:00:02.00
Peak level 99.8 %
Track quality 100.0 %
Test CRC 600859CF
Copy CRC 600859CF
Copy OK
Track 2
Filename D:SeedBrad Mehldau - Progression (The Art of the Trio, vol. 5) - 2001 [FLAC] {2CD} {by Lontananza}Disc 12 - Dream's monk.wav
Peak level 99.8 %
Track quality 100.0 %
Test CRC 11131A2A
Copy CRC 11131A2A
Copy OK
Track 3
Filename D:SeedBrad Mehldau - Progression (The Art of the Trio, vol. 5) - 2001 [FLAC] {2CD} {by Lontananza}Disc 13 - The folks who live on the hill.wav
Peak level 91.6 %
Track quality 100.0 %
Test CRC 66A4DF77
Copy CRC 66A4DF77
Copy OK
Track 4
Filename D:SeedBrad Mehldau - Progression (The Art of the Trio, vol. 5) - 2001 [FLAC] {2CD} {by Lontananza}Disc 14 - Alone toghether.wav
Peak level 99.8 %
Track quality 100.0 %
Test CRC D47E0F2D
Copy CRC D47E0F2D
Copy OK
Track 5
Filename D:SeedBrad Mehldau - Progression (The Art of the Trio, vol. 5) - 2001 [FLAC] {2CD} {by Lontananza}Disc 15 - It might as well be spring.wav
Peak level 99.8 %
Track quality 100.0 %
Test CRC BDDD7007
Copy CRC BDDD7007
Copy OK
Track 6
Filename D:SeedBrad Mehldau - Progression (The Art of the Trio, vol. 5) - 2001 [FLAC] {2CD} {by Lontananza}Disc 16 - Cry me a river.wav
Peak level 99.8 %
Track quality 100.0 %
Test CRC 263EA0E1
Copy CRC 263EA0E1
Copy OK
Track 7
Filename D:SeedBrad Mehldau - Progression (The Art of the Trio, vol. 5) - 2001 [FLAC] {2CD} {by Lontananza}Disc 17 - River man.wav
Peak level 99.8 %
Track quality 99.9 %
Test CRC 744684BB
Copy CRC 744684BB
Copy OK
No errors occured
End of status report
EAC extraction logfile from 12. July 2005, 22:16 for CD
Brad Mehldau / Progression - The Art of the Trio, vol. 5 - II
Used drive : PLEXTOR CD-R PREMIUM Adapter: 1 ID: 0
Read mode : Secure with NO C2, accurate stream, disable cache
Read offset correction : 30
Overread into Lead-In and Lead-Out : Yes
Used output format : E:ProgrammiExact Audio Copy 0.95Encodersflac.exe (User Defined Encoder)
224 kBit/s
Additional command line options : -8 -V -T "artist=%a" -T "title=%t" -T "album=%g" -T "date=%y" -T "tracknumber=%n" -T "genre=%m" -T "comment=Exact Audio Copy 0.95 pb5 Secure Mode / FLAC q8 v. 1.1.2" %s
Other options :
Fill up missing offset samples with silence : No
Delete leading and trailing silent blocks : No
Installed external ASPI interface
Track 1
Filename D:SeedBrad Mehldau - Progression (The Art of the Trio, vol. 5) - 2001 [FLAC] {2CD} {by Lontananza}Disc 21 - Quit.wav
Peak level 99.8 %
Track quality 100.0 %
Test CRC FCDB68ED
Copy CRC FCDB68ED
Copy OK
Track 2
Filename D:SeedBrad Mehldau - Progression (The Art of the Trio, vol. 5) - 2001 [FLAC] {2CD} {by Lontananza}Disc 22 - Secret love.wav
Peak level 98.0 %
Track quality 100.0 %
Test CRC 257DF38A
Copy CRC 257DF38A
Copy OK
Track 3
Filename D:SeedBrad Mehldau - Progression (The Art of the Trio, vol. 5) - 2001 [FLAC] {2CD} {by Lontananza}Disc 23 - Sublation.wav
Peak level 99.8 %
Track quality 100.0 %
Test CRC A5C244E7
Copy CRC A5C244E7
Copy OK
Track 4
Filename D:SeedBrad Mehldau - Progression (The Art of the Trio, vol. 5) - 2001 [FLAC] {2CD} {by Lontananza}Disc 24 - Resignation.wav
Peak level 99.8 %
Track quality 100.0 %
Test CRC F7FAE0DB
Copy CRC F7FAE0DB
Copy OK
Track 5
Filename D:SeedBrad Mehldau - Progression (The Art of the Trio, vol. 5) - 2001 [FLAC] {2CD} {by Lontananza}Disc 25 - Long ago and far away.wav
Peak level 99.8 %
Track quality 100.0 %
Test CRC 1755F62B
Copy CRC 1755F62B
Copy OK
Track 6
Filename D:SeedBrad Mehldau - Progression (The Art of the Trio, vol. 5) - 2001 [FLAC] {2CD} {by Lontananza}Disc 26 - How long has this been going on .wav
Peak level 97.2 %
Track quality 99.9 %
Test CRC B4DCB05A
Copy CRC B4DCB05A
Copy OK
No errors occured
End of status report
Lossless

MP3

SCANS (51 mb, PNG)




Alternative download links

hotfile.com-1 hotfile.com-2 hotfile.com-3 hotfile.com-4 hotfile.com-1 hotfile.com-2 HOTFILE

Related MP3 FLAC to Brad Mehldau - Art of the Trio, Vol. 5: Progression (2001)
Feedback
All rights reserved.
WEBBG.com © 2000-2018