Ramsey Lewis – With One Voice (2005)
MP3 FLAC WMA APE HD

Ramsey Lewis – With One Voice (2005)

  • Genre: Music, Jazz, FLAC / APE
  • Formats: MP3 FLAC WMA HD APE
  • Album Size: 1765 mb.
  • Archive: ZIP RAR
Artist: Ramsey Lewis
Title Of Album: With One Voice
Year Of Release: 2005
Label: Narada
Genre: Jazz
Quality: FLAC (Img,cue,log,scans)|MP3
Bitrate: lossless | 320kbps
Total Time: 63:52 min
Total Size: 456 mb/163 mb (+5%rec)
TRACKLIST
1.Oh Happy Day
2.Sunday Strut
3.Bless Me
4.Thoughts and Reflections
5.Pass Me Not
6.Trees
7.God Can Work It Out
8.My Love For You
9.Healed Heart – (with Darius Brooks)
10.Keep the Spirit
11.With One Voice
Personnel include:
Ramsey Lewis (piano);
Keith Henderson, Bobby Broom (guitar);
Stephen Eisen (saxophone);
Orbert Davis (trumpet);
Tracy Kirk (trombone);
William Kilgore (organ);
Kevin Randolph (keyboards);
Larry Gray, Maurice Fitzgerald (bass instrument);
Leon Joyce Jr., Khari Parker (drums);
Ruben P. Alvarez (percussion);
Lambert Anthony Waldrip II (programming);
Years before he became known for hits like "The In Crowd" and "Wade in the Water," Ramsey Lewis had been recognized in his local Chicago community as a gifted classical and gospel pianist. A live document of his 2005 return to his religious roots, WITH ONE VOICE brings Lewis's signature spare, swinging style to bear on stirring and polished instrumental performances of gospel classics like "Oh Happy Day" and "Pass Me Not," as well as more contemporary compositions, like Smokie Norful's "God Can Work it Out" and Darius Brooks's "Healed Heart," both heard here sung by their composers.
Exact Audio Copy V0.99 prebeta 4 from 23. January 2008
EAC extraction logfile from 23. June 2009, 6:35
Ramsey Lewis / With One Voice
Used drive : ASUS DRW-1814BL Adapter: 0 ID: 0
Read mode : Secure
Utilize accurate stream : Yes
Defeat audio cache : Yes
Make use of C2 pointers : No
Read offset correction : 6
Overread into Lead-In and Lead-Out : No
Fill up missing offset samples with silence : Yes
Delete leading and trailing silent blocks : No
Null samples used in CRC calculations : Yes
Used interface : Installed external ASPI interface
Used output format : Internal WAV Routines
Sample format : 44.100 Hz; 16 Bit; Stereo
TOC of the extracted CD
Track | Start | Length | Start sector | End sector
---------------------------------------------------------
1 | 0:00.00 | 6:37.30 | 0 | 29804
2 | 6:37.30 | 3:15.61 | 29805 | 44490
3 | 9:53.16 | 5:28.11 | 44491 | 69101
4 | 15:21.27 | 4:34.22 | 69102 | 89673
5 | 19:55.49 | 7:50.48 | 89674 | 124971
6 | 27:46.22 | 7:56.59 | 124972 | 160730
7 | 35:43.06 | 6:15.40 | 160731 | 188895
8 | 41:58.46 | 3:55.54 | 188896 | 206574
9 | 45:54.25 | 7:45.41 | 206575 | 241490
10 | 53:39.66 | 5:10.38 | 241491 | 264778
11 | 58:50.29 | 5:01.71 | 264779 | 287424
Range status and errors
Selected range
Filename C:Documents and SettingsDesktopRamsey Lewis - With One VoiceRamsey Lewis - With One Voice.wav
Peak level 98.8 %
Range quality 99.9 %
Copy CRC CF9CC921
Copy OK
No errors occurred
End of status report
Hotfile.com:
Filesonic.com:
MP3:




Alternative download links

part1 part2 part3 HotFile

Related MP3 FLAC to Ramsey Lewis – With One Voice (2005)
Feedback
All rights reserved.
WEBBG.com © 2000-2018