Dave Brubeck Quartet Featuring Jimmy Rushing - Brubeck Rushing (1998)
MP3 FLAC WMA APE HD

Dave Brubeck Quartet Featuring Jimmy Rushing - Brubeck Rushing (1998)

  • Genre: Music, Jazz, FLAC / APE
  • Formats: MP3 FLAC WMA HD APE
  • Album Size: 1375 mb.
  • Archive: ZIP RAR
Artist: Dave Brubeck Quartet Featuring Jimmy Rushing
Title Of Album: Brubeck & Rushing
Year Of Release: 1998
Original Year: 1960
Label: Columbia / Legacy
Genre: Jazz / Jazz Blues / West Coast Jazz
Quality: FLAC (Img,Cue,Log,Scans)|MP3
Bitrate: lossless | 320kbps
Total Time: 36:45 min
Total Size: 236 mb/103 mb (+%rec)
TRACKLIST
1. There’ll Be Some Changes Made Higgins, Overstreet 2:10
2. My Melancholy Baby Burnett, Norton, Watson 4:01
3. Blues in the Dark Basie, Rushing 4:42
4. I Never Knew (I Could Love Anyone Like I’m Loving You) (Egan, Marsh, Pitts) 2:32
5. Ain’t Misbehavin’ (Brooks, Razaf, Waller, Waller) 3:25
6. Evenin’ (Parish, White) 4:14
7. All by Myself (Berlin) 2:34
8. River, Stay ‘Way from My Door (Dixon, Woods) 4:26
9. You Can Depend on Me (Carpenter, Dunlap, Dunlape) 3:33
10. Am I Blue? (Akst, Clarke) 2:54
11. Shine on Harvest Moon (Bayes, Norworth) 2:10
Performers:
Dave Brubeck (piano)
Paul Desmond (alto sx)
Gene Wright (bass)
Joe Morello (drums.)
Featuring:
Jimmy Rushing (vocal)
An odd pairing on a couple of counts. First, there's the discrepancy between the innate swing of Jimmy Rushing's phrasing and Brubeck's notorious stiffness. (In one off-kilter moment, the singer exclaims "tell the truth, man... play it, home!" behind the pianist's ultraterse, bluesless, soft-pedaled solo on "Blues in the Dark.") Second, there's Rushing's enormous, rough-textured voice juxtaposed against the sweet, soft, lithe alto sax counterlines of Paul Desmond. It's the latter relationship that carries this 1960 session, though to be fair Brubeck rises to the occasion too, his spare playing--along with the unimpeachable bed created by associates Gene Wright, on bass, and Joe Morello, on drums--providing an exquisite showcase for the Basie belter. Don't miss Rushing slightly rolling his r's on "Evenin'"--the exquisite diction of blues aristocracy! --John Corbett
Exact Audio Copy V0.99 prebeta 4 from 23. January 2008
EAC extraction logfile from 14. November 2009, 23:29
Dave Brubeck / Brubeck & Rushing
Used drive : ASUS DRW-1814BL Adapter: 0 ID: 0
Read mode : Secure
Utilize accurate stream : Yes
Defeat audio cache : Yes
Make use of C2 pointers : No
Read offset correction : 6
Overread into Lead-In and Lead-Out : No
Fill up missing offset samples with silence : Yes
Delete leading and trailing silent blocks : No
Null samples used in CRC calculations : Yes
Used interface : Native Win32 interface for Win NT & 2000
Used output format : Internal WAV Routines
Sample format : 44.100 Hz; 16 Bit; Stereo
TOC of the extracted CD
Track | Start | Length | Start sector | End sector
---------------------------------------------------------
1 | 0:00.00 | 2:10.47 | 0 | 9796
2 | 2:10.47 | 4:01.13 | 9797 | 27884
3 | 6:11.60 | 4:42.15 | 27885 | 49049
4 | 10:54.00 | 2:32.15 | 49050 | 60464
5 | 13:26.15 | 3:25.15 | 60465 | 75854
6 | 16:51.30 | 4:14.32 | 75855 | 94936
7 | 21:05.62 | 2:34.65 | 94937 | 106551
8 | 23:40.52 | 4:26.23 | 106552 | 126524
9 | 28:07.00 | 3:33.52 | 126525 | 142551
10 | 31:40.52 | 2:54.73 | 142552 | 155674
11 | 34:35.50 | 2:09.40 | 155675 | 165389
Range status and errors
Selected range
Filename C:DesktopDave Brubeck Quartet - Brubeck & RushingDave Brubeck - Brubeck & Rushing.wav
Peak level 100.0 %
Range quality 100.0 %
Test CRC 3A0D1F1F
Copy CRC 3A0D1F1F
Copy OK
No errors occurred
End of status report
Hotfile.com:
Filesonic.com:
MP3:




Alternative download links

part1 part2 HotFile

Related MP3 FLAC to Dave Brubeck Quartet Featuring Jimmy Rushing - Brubeck Rushing (1998)
Feedback
All rights reserved.
WEBBG.com © 2000-2018