Joe Pass - 12 String Guitar The Stones Jazz (60s, 2009)
MP3 FLAC WMA APE HD

Joe Pass - 12 String Guitar The Stones Jazz (60s, 2009)

Artist: Joe Pass
Title Of Album: 12 String Guitar /The Stones Jazz
Year Of Release: 60's, 2009
Label: Beat Goes On (U.K.), BGOCD907
Genre: Instrumental Jazz, Oldies
Quality: lossless
Bitrate: FLAC image + cue + log + scans
Total Time: 01:07:14
Total Size: 445 MB (+3%)
This set contains his amazing 12 String Guitar album (the first 12 tracks) issued in 1963, with bonus tracks from a 1964 session included. Pass played an acoustic 12-string, of course, and was accompanied by John Pisano on rhythm guitar, bassist Charlie Haden, and drummer Larry Bunker. Each cut is a beautiful modern jazz reading of popular movie themes of the day.
The final 13 cuts here was recorded and released in 1966. They feature Pass playing Rolling Stones covers on electric guitar backed by a large West Coast jazz orchestra, arranged and conducted by Bob Florence, with the only other identified musician being tenor saxophonist Bill Perkins. Pass' performance is stellar (check his reading of "Paint It Black"), with his trademark taste and elegance and technique galore, while Florence's arrangements combine everything from Latin to rock, pop, and progressive big-band sounds.
Tracklist
12 String Guitar (Great Motion Picture Themes)
1. Charade [02:28]
2. Sunday In New York [02:52]
3. Carnaval From Black [03:27]
4. Fall Of Love [03:09]
5. Wives and Losers [03:03]
6. How The West Was Won [03:02]
7. More [02:54]
8. It Had Better Be Tonight [02:34]
9. Lawrence Of Arabia [02:58]
10. Love Theme Of Tom Jones [02:56]
11. Love With The Proper Stranger [01:52]
12. Call Me Irresponsible [02:25]
The Stones Jazz
13. Play With Fire [03:04]
14. 19th Nervous Breakdown [03:02]
15. I Am Waiting [03:07]
16. Lady Jane [02:54]
17. Not Fade Away [02:38]
18. Mother's Little Helper [02:53]
19. Satisfaction [03:13]
20. Paint It Black [03:38]
21. What A Shame [03:02]
22. As Tears Go By [03:08]
23. Stone Jazz [02:55]
Total time 01:07:14
Recording information: Los Angeles, CA (07/1966); World Pacific Jazz Studios, Los Angeles, CA (07/1966); Los Angeles, CA ; World Pacific Jazz Studios, Los Angeles, CA .
Audio Remasterer: Andrew Thompson.
Exact Audio Copy V0.99 prebeta 5 from 4. May 2009
Отчёт EAC об извлечении, выполненном 6. сентября 2010, 17:59
Joe Pass / 12 String GuitarThe Stones Jazz
Дисковод: PIONEER DVD-RW DVR-217F Adapter: 0 ID: 1
Режим чтения : Достоверность
Использование точного потока : Да
Отключение кэша аудио : Да
Использование указателей C2 : Нет
Коррекция смещения при чтении : 96
Способность читать области Lead-in и Lead-out : Нет
Заполнение пропущенных сэмплов тишиной : Да
Удаление блоков с тишиной в начале и конце : Нет
При вычислениях CRC использовались нулевые сэмплы : Да
Интерфейс : Установленный внешний ASPI-интерфейс
Выходной формат : Пользовательский кодировщик
Выбранный битрейт : 128 kBit/s
Качество : Высокий
Добавление ID3-тэга : Нет
Утилита сжатия : C:Program FilesFLACFLAC frontend.exe
Дополнительные параметры : -8 -V %s
TOC извлечённого CD
Трек | Старт | Длительность | Начальный сектор | Конечный сектор
---------------------------------------------------------------------
1 | 0:00.00 | 2:28.29 | 0 | 11128
2 | 2:28.29 | 2:52.56 | 11129 | 24084
3 | 5:21.10 | 3:27.63 | 24085 | 39672
4 | 8:48.73 | 3:09.53 | 39673 | 53900
5 | 11:58.51 | 3:03.70 | 53901 | 67695
6 | 15:02.46 | 3:02.06 | 67696 | 81351
7 | 18:04.52 | 2:54.38 | 81352 | 94439
8 | 20:59.15 | 2:34.57 | 94440 | 106046
9 | 23:33.72 | 2:58.34 | 106047 | 119430
10 | 26:32.31 | 2:56.65 | 119431 | 132695
11 | 29:29.21 | 1:52.30 | 132696 | 141125
12 | 31:21.51 | 2:25.06 | 141126 | 152006
13 | 33:46.57 | 3:04.07 | 152007 | 165813
14 | 36:50.64 | 3:02.73 | 165814 | 179536
15 | 39:53.62 | 3:07.59 | 179537 | 193620
16 | 43:01.46 | 2:54.54 | 193621 | 206724
17 | 45:56.25 | 2:38.69 | 206725 | 218643
18 | 48:35.19 | 2:53.43 | 218644 | 231661
19 | 51:28.62 | 3:13.11 | 231662 | 246147
20 | 54:41.73 | 3:38.01 | 246148 | 262498
21 | 58:19.74 | 3:02.21 | 262499 | 276169
22 | 61:22.20 | 3:08.65 | 276170 | 290334
23 | 64:31.10 | 2:55.50 | 290335 | 303509
Характеристики диапазона извлечения и сообщения об ошибках
Выбранный диапазон
Имя файла C:TorrentJoe Pass - 12 String GuitarJoe Pass - 12 String Guitar The Stones Jazz.wav
Пиковый уровень 100.0 %
Качество диапазона 100.0 %
CRC теста 46374741
CRC копии 46374741
Копирование... OK
Ошибок не произошло

AccurateRip: сводка

Трек 1 нет в базе данных
Трек 2 нет в базе данных
Трек 3 нет в базе данных
Трек 4 нет в базе данных
Трек 5 нет в базе данных
Трек 6 нет в базе данных
Трек 7 нет в базе данных
Трек 8 нет в базе данных
Трек 9 нет в базе данных
Трек 10 нет в базе данных
Трек 11 нет в базе данных
Трек 12 нет в базе данных
Трек 13 нет в базе данных
Трек 14 нет в базе данных
Трек 15 нет в базе данных
Трек 16 нет в базе данных
Трек 17 нет в базе данных
Трек 18 нет в базе данных
Трек 19 нет в базе данных
Трек 20 нет в базе данных
Трек 21 нет в базе данных
Трек 22 нет в базе данных
Трек 23 нет в базе данных

Ни одного трека нет в базе AccurateRip
Конец отчёта
Download:
(turbobit.net)
| | |
(hotfile.com)
| | |
(letitbit.net)
| | |
(fileserve.com)
| | |





Alternative download links

Download part 1 Download part 2 Download part 3 Download part 4 Download part 1 Download part 2 Download part 3 Download part 4 Download part 1 Download part 2 Download part 3 Download part 4 Download part 1 Download part 2 Download part 3 Download part 4

Related MP3 FLAC to Joe Pass - 12 String Guitar The Stones Jazz (60s, 2009)
Feedback
All rights reserved.
WEBBG.com © 2000-2018