Charlie Byrd - Byrd Brazil (2004) 2CD
MP3 FLAC WMA APE HD

Charlie Byrd - Byrd Brazil (2004) 2CD

Artist: Charlie Byrd
Title Of Album: Byrd & Brazil
Year Of Release: 2004
Label: Concord Records
Catalog #: CDD-4114-2 & CDD-4173-2
Genre: Jazz, Bossa Nova
Quality: FLAC (Tracks,cue,log,scans)|MP3
Bitrate: lossless | 320kbps
Total Time: CD1 00:38:74, CD2 00:39:86
Total Size: 507 mb/234 mb
Tracklist:
Sugarloaf Suite
01. Pimeira Palavra (The First Word) (6:44)
02. Trieste (4:06)
03. Favela (4:06)
04. Na Praia (At The Seaside) (4:48)
05. Meninas Brincando (Little Girls At Play) (5:30)
06. Saudade Da Bahia (6:19)
07. Sapatos Novos (New Shoes) (8:24)
08. The Gentle Rain (3:43)
Brazilville
01. Brazilville (5:11)
02. What Are You Doing The Rest Of Your Life (5:39)
03. Zingaro (4:30)
04. Speak Low (5:48)
05. How Insensitive (6:01)
06. Saquarema (5:08)
07. Charlotte’s Fancy (5:07)
08. Yesterdays (6:43)
Personnel:
Charlie Byrd (guitar);
Joe byrd (Bass);
Wayne Phillips (drums); (disc 1)
Charles Ress (drums); (disc 2)
Bud Shank (alto saxophone). (disc 2)
The name Byrd and the word Brazil are practically synonymous. After all, it was guitarist Charlie Byrd who first brought Brazil’s mesmerizing, breezy fusion of jazz and Brazilian music to North American audiences, launching the bossa nova craze in the U.S. in the early ’60s. Nearly two decades later, when these two Byrd bossa nova classics were recorded Sugarloaf Suite and Brazilville, the bossa nova continued to be a fertile vehicle of expression and exploration for Charlie Byrd, as evidenced by the boundless artistry and imagination on display in these timeless recordings. Charlie Byrd, guitar; with collective personnel: Joe Byrd, bass; Wayne Phillips, drums; Charles Redd, drums; Bud Shank, alto saxophone.
Exact Audio Copy V0.99 prebeta 4 from 23. January 2008
EAC extraction logfile from 16. July 2009, 5:36
Charlie Byrd / Sugarload Suite
Used drive : Optiarc DVD RW AD-5200A Adapter: 1 ID: 0
Read mode : Secure
Utilize accurate stream : Yes
Defeat audio cache : Yes
Make use of C2 pointers : No
Read offset correction : 48
Overread into Lead-In and Lead-Out : No
Fill up missing offset samples with silence : Yes
Delete leading and trailing silent blocks : No
Null samples used in CRC calculations : Yes
Used interface : Installed external ASPI interface
Gap handling : Appended to previous track
Used output format : Internal WAV Routines
Sample format : 44.100 Hz; 16 Bit; Stereo
TOC of the extracted CD
Track | Start | Length | Start sector | End sector
---------------------------------------------------------
1 | 0:00.00 | 6:44.25 | 0 | 30324
2 | 6:44.25 | 4:06.28 | 30325 | 48802
3 | 10:50.53 | 4:06.40 | 48803 | 67292
4 | 14:57.18 | 4:48.35 | 67293 | 88927
5 | 19:45.53 | 5:30.62 | 88928 | 113739
6 | 25:16.40 | 6:19.00 | 113740 | 142164
7 | 31:35.40 | 8:24.53 | 142165 | 180017
8 | 40:00.18 | 3:43.62 | 180018 | 196804
Track 1
Filename C:EAC1 - Pimeira Palavra (The First Word).wav
Pre-gap length 0:00:02.00
Peak level 68.2 %
Track quality 100.0 %
Test CRC 0DFE9FE4
Copy CRC 0DFE9FE4
Track not present in AccurateRip database
Copy OK
Track 2
Filename C:EAC2 - Trieste.wav
Peak level 43.0 %
Track quality 99.9 %
Test CRC 48B78671
Copy CRC 48B78671
Track not present in AccurateRip database
Copy OK
Track 3
Filename C:EAC3 - Favela.wav
Peak level 53.0 %
Track quality 100.0 %
Test CRC 3F60713D
Copy CRC 3F60713D
Track not present in AccurateRip database
Copy OK
Track 4
Filename C:EAC4 - Na Praia (At the Seaside).wav
Peak level 54.8 %
Track quality 100.0 %
Test CRC 166F7EBF
Copy CRC 166F7EBF
Track not present in AccurateRip database
Copy OK
Track 5
Filename C:EAC5 - Meninas Brincando (Little Girls at Play).wav
Peak level 52.2 %
Track quality 100.0 %
Test CRC 2B7816A6
Copy CRC 2B7816A6
Track not present in AccurateRip database
Copy OK
Track 6
Filename C:EAC6 - Saudade da Bahia.wav
Peak level 47.0 %
Track quality 100.0 %
Test CRC 2BA12C32
Copy CRC 2BA12C32
Track not present in AccurateRip database
Copy OK
Track 7
Filename C:EAC7 - Sapatos Novos (New Shoes).wav
Peak level 77.1 %
Track quality 99.9 %
Test CRC 1B56295A
Copy CRC 1B56295A
Track not present in AccurateRip database
Copy OK
Track 8
Filename C:EAC8 - The Gentle Rain.wav
Peak level 44.6 %
Track quality 99.9 %
Test CRC 8927947A
Copy CRC 8927947A
Track not present in AccurateRip database
Copy OK
None of the tracks are present in the AccurateRip database
No errors occurred
End of status report
Exact Audio Copy V0.99 prebeta 4 from 23. January 2008
EAC extraction logfile from 16. July 2009, 15:33
Charlie Byrd Trio / Brazilville
Used drive : Optiarc DVD RW AD-5200A Adapter: 1 ID: 0
Read mode : Secure
Utilize accurate stream : Yes
Defeat audio cache : Yes
Make use of C2 pointers : No
Read offset correction : 48
Overread into Lead-In and Lead-Out : No
Fill up missing offset samples with silence : Yes
Delete leading and trailing silent blocks : No
Null samples used in CRC calculations : Yes
Used interface : Installed external ASPI interface
Gap handling : Appended to previous track
Used output format : Internal WAV Routines
Sample format : 44.100 Hz; 16 Bit; Stereo
TOC of the extracted CD
Track | Start | Length | Start sector | End sector
---------------------------------------------------------
1 | 0:00.00 | 5:11.45 | 0 | 23369
2 | 5:11.45 | 5:39.23 | 23370 | 48817
3 | 10:50.68 | 4:30.55 | 48818 | 69122
4 | 15:21.48 | 5:48.12 | 69123 | 95234
5 | 21:09.60 | 6:01.38 | 95235 | 122347
6 | 27:11.23 | 5:08.65 | 122348 | 145512
7 | 32:20.13 | 5:07.17 | 145513 | 168554
8 | 37:27.30 | 6:43.53 | 168555 | 198832
Track 1
Filename C:EAC1 - Brazilville.wav
Pre-gap length 0:00:02.00
Peak level 68.8 %
Track quality 100.0 %
Test CRC D03C4717
Copy CRC D03C4717
Cannot be verified as accurate (confidence 2) [E799485F], AccurateRip returned [64C416F3]
Copy OK
Track 2
Filename C:EAC2 - What Are You Doing the Rest of Your Life.wav
Peak level 57.0 %
Track quality 100.0 %
Test CRC 264E925D
Copy CRC 264E925D
Cannot be verified as accurate (confidence 2) [A917A87A], AccurateRip returned [B898C743]
Copy OK
Track 3
Filename C:EAC3 - Zingaro.wav
Peak level 61.4 %
Track quality 100.0 %
Test CRC 2322DA9F
Copy CRC 2322DA9F
Cannot be verified as accurate (confidence 2) [E8D2A9E3], AccurateRip returned [6A6088AC]
Copy OK
Track 4
Filename C:EAC4 - Speak Low.wav
Peak level 80.0 %
Track quality 100.0 %
Test CRC 9F0DB696
Copy CRC 9F0DB696
Cannot be verified as accurate (confidence 2) [F9C1A3EE], AccurateRip returned [60A66A7B]
Copy OK
Track 5
Filename C:EAC5 - How Insensitive.wav
Peak level 72.2 %
Track quality 100.0 %
Test CRC 102EB51A
Copy CRC 102EB51A
Cannot be verified as accurate (confidence 2) [165F5227], AccurateRip returned [9E072ADE]
Copy OK
Track 6
Filename C:EAC6 - Saquarema.wav
Peak level 81.5 %
Track quality 100.0 %
Test CRC 7BB9D929
Copy CRC 7BB9D929
Cannot be verified as accurate (confidence 2) [9BD70C9A], AccurateRip returned [9E835A54]
Copy OK
Track 7
Filename C:EAC7 - Charlotte's Fancy.wav
Peak level 62.8 %
Track quality 100.0 %
Test CRC 38169AA2
Copy CRC 38169AA2
Cannot be verified as accurate (confidence 2) [59B7B76C], AccurateRip returned [133044A7]
Copy OK
Track 8
Filename C:EAC8 - Yesterdays.wav
Peak level 76.8 %
Track quality 100.0 %
Test CRC 9003C56F
Copy CRC 9003C56F
Track not present in AccurateRip database
Copy OK
7 track(s) could not be verified as accurate
1 track(s) not present in the AccurateRip database
No tracks could be verified as accurate
You may have a different pressing from the one(s) in the database
No errors occurred
End of status report
Each archive contains information for recovery! All parts are interchangeable
Download FLAC

Download MP3





Alternative download links

hotfile1 hotfile2 hotfile3 fileserve1 fileserve2 fileserve3 hotfile1 hotfile2 fileserve1 fileserve2

Related MP3 FLAC to Charlie Byrd - Byrd Brazil (2004) 2CD
Feedback
All rights reserved.
WEBBG.com © 2000-2018