Harold Land Quintet - The Peace-Maker (2006)
MP3 FLAC WMA APE HD

Harold Land Quintet - The Peace-Maker (2006)

Artist: Harold Land Quintet
Title Of Album: The Peace-Maker
Year Of Release: 2006
Label: Cadet Records
Genre: Hard Bop
Quality: FLAC (tracks+.cue) + log
Bitrate: Lossless
Total Time: 00:35:32
Total Size: 237 Mb
Harold Land is an underrated tenor saxophonist whose tone has hardened with time and whose improvising style after the 1960s became influenced by (but not a copy of) John Coltrane. He grew up in San Diego and started playing tenor when he was 16. After working locally and making his recording debut for Savoy , Land had his first high-profile gig in 1954 when he joined the Clifford Brown/Max Roach Quintet. Land performed and recorded with the group until late 1955 when due to family problems he had to return home to Los Angeles (where he has been based ever since). He played with Curtis Counce's band (1956-1958), recorded a pair of memorable albums for Contemporary (1958-1959), led his own groups in the 1960s, and co-led groups with Bobby Hutcherson (1967-1971) and Blue Mitchell (1975-1978). Harold Land continued freelancing around Los Angeles up until his death in 2001. Land recorded as a leader (in addition to Savoy and Contemporary) for such labels as Jazzland, Blue Note, Imperial, Atlantic, Cadet, Mainstream, Concord, Muse, and Postcards. His son, Harold Land, Jr., occasionally played piano with his groups.
Tracklist:
01.The Peace-Maker [5:10]
02.Stylin' [3:34]
03.40 Love [5:15]
04.Angel Dance [3:57]
05.Timetable [4:15]
06.Imagine [3:22]
07.The Aquarian [5:25]
08.One For Nini [4:57]
Exact Audio Copy V0.99 prebeta 4 from 23. January 2008
EAC extraction logfile from 18. May 2008, 8:43
Harold Land / The Peace-Maker
Used drive : _NEC DVD_RW ND-3520A Adapter: 1 ID: 0
Read mode : Secure
Utilize accurate stream : Yes
Defeat audio cache : Yes
Make use of C2 pointers : No
Read offset correction : 48
Overread into Lead-In and Lead-Out : No
Fill up missing offset samples with silence : Yes
Delete leading and trailing silent blocks : No
Null samples used in CRC calculations : Yes
Used interface : Installed external ASPI interface
Gap handling : Appended to previous track
Used output format : User Defined Encoder
Selected bitrate : 1024 kBit/s
Quality : High
Add ID3 tag : No
Command line compressor : C:Program FilesFLACflac.exe
Additional command line options : -8 -V -T "ARTIST=%a" -T "TITLE=%t" -T "ALBUM=%g" -T "DATE=%y" -T "TRACKNUMBER=%n" -T "GENRE=%m" -T "COMMENT=EAC FLAC -8" %s
TOC of the extracted CD
Track | Start | Length | Start sector | End sector
---------------------------------------------------------
1 | 0:00.00 | 5:11.16 | 0 | 23340
2 | 5:11.16 | 3:37.36 | 23341 | 39651
3 | 8:48.52 | 4:51.62 | 39652 | 61538
4 | 13:40.39 | 3:40.47 | 61539 | 78085
5 | 17:21.11 | 4:12.34 | 78086 | 97019
6 | 21:33.45 | 3:26.40 | 97020 | 112509
7 | 25:00.10 | 5:33.00 | 112510 | 137484
8 | 30:33.10 | 4:58.62 | 137485 | 159896
Track 1
Filename C:Documents and SettingsAll UsersDocumentsUploadsPHarold Land - The Peace-Maker [FLAC]1 - The Peace-Maker.wav
Pre-gap length 0:00:02.00
Peak level 87.5 %
Track quality 99.9 %
Test CRC F1CFEF63
Copy CRC F1CFEF63
Track not present in AccurateRip database
Copy OK
Track 2
Filename C:Documents and SettingsAll UsersDocumentsUploadsPHarold Land - The Peace-Maker [FLAC]2 - Stylin'.wav
Pre-gap length 0:00:03.68
Peak level 81.9 %
Track quality 99.9 %
Test CRC D2BBC463
Copy CRC D2BBC463
Track not present in AccurateRip database
Copy OK
Track 3
Filename C:Documents and SettingsAll UsersDocumentsUploadsPHarold Land - The Peace-Maker [FLAC]3 - 40 Love.wav
Pre-gap length 0:00:02.52
Peak level 85.2 %
Track quality 100.0 %
Test CRC 388ECD76
Copy CRC 388ECD76
Track not present in AccurateRip database
Copy OK
Track 4
Filename C:Documents and SettingsAll UsersDocumentsUploadsPHarold Land - The Peace-Maker [FLAC]4 - Angel Dance.wav
Pre-gap length 0:00:02.76
Peak level 94.8 %
Track quality 100.0 %
Test CRC A764DC79
Copy CRC A764DC79
Track not present in AccurateRip database
Copy OK
Track 5
Filename C:Documents and SettingsAll UsersDocumentsUploadsPHarold Land - The Peace-Maker [FLAC]5 - Timetable.wav
Pre-gap length 0:00:02.58
Peak level 88.0 %
Track quality 100.0 %
Test CRC 698BF19E
Copy CRC 698BF19E
Track not present in AccurateRip database
Copy OK
Track 6
Filename C:Documents and SettingsAll UsersDocumentsUploadsPHarold Land - The Peace-Maker [FLAC]6 - Imagine.wav
Pre-gap length 0:00:02.69
Peak level 82.4 %
Track quality 99.9 %
Test CRC 56305B31
Copy CRC 56305B31
Track not present in AccurateRip database
Copy OK
Track 7
Filename C:Documents and SettingsAll UsersDocumentsUploadsPHarold Land - The Peace-Maker [FLAC]7 - The Aquarian.wav
Pre-gap length 0:00:03.14
Peak level 97.7 %
Track quality 100.0 %
Test CRC 65A6011B
Copy CRC 65A6011B
Track not present in AccurateRip database
Copy OK
Track 8
Filename C:Documents and SettingsAll UsersDocumentsUploadsPHarold Land - The Peace-Maker [FLAC]8 - One for Nini.wav
Pre-gap length 0:00:02.98
Peak level 87.7 %
Track quality 100.0 %
Test CRC 93C154D6
Copy CRC 93C154D6
Track not present in AccurateRip database
Copy OK
None of the tracks are present in the AccurateRip database
No errors occurred
End of status report
FileSonic
Wupload



Alternative download links

DOWNLOAD

Related MP3 FLAC to Harold Land Quintet - The Peace-Maker (2006)
Feedback
All rights reserved.
WEBBG.com © 2000-2018