Catapult - The Single Collection (1996)
MP3 FLAC WMA APE HD

Catapult - The Single Collection (1996)

Artist: Catapult
Title Of Album: The Single Collection
Year Of Release: 1996
Label: Pseudonym Records
Genre: Glam Rock
Quality: FLAC (tracks+.cue) + log
Bitrate: Lossless
Total Time: 59:58
Total Size: 410 Mb
This is the story of Catapult, or in other words what the consequences of a well-spent holiday can be. Early in the Summer of 1973 Geertjan Hessing, Erwin van Prehn, Aart Mol and Cees Bergman decided to form a band. They were all veterans of the Leiden music scene, having previously worked together in several groups without achieving any noteworthy success.
Tracklist:
01 Hit The Big Time 3:25
02 Let It Be True 2:33
03 Let Your Hair Hang Down 2:38
04 Performers Prayer 2:34
05 Teeny Bopper Band 2:49
06 Nightrake 3:33
07 Seven Eleven 3:22
08 Springtime Ballyhoo 3:42
09 The Stealer 2:49
10 Back On The Road Again 3:35
11 Remember September 2:52
12 See You Back In '86 3:08
13 Here We Go 3:01
14 Run For My Wife 2:58
15 Accident 7:08
16 Midsummer Switch 7:05
17 White Christmas 2:23
Exact Audio Copy V0.99 prebeta 5 from 4. May 2009
Отчёт EAC об извлечении, выполненном 8. августа 2011, 7:35
Catapult / The Single Collection
Дисковод: _NEC DVD_RW ND-3550A Adapter: 0 ID: 0
Режим чтения : Достоверность
Использование точного потока : Да
Отключение кэша аудио : Да
Использование указателей C2 : Нет
Коррекция смещения при чтении : 48
Способность читать области Lead-in и Lead-out : Нет
Заполнение пропущенных сэмплов тишиной : Да
Удаление блоков с тишиной в начале и конце : Нет
При вычислениях CRC использовались нулевые сэмплы : Да
Интерфейс : Установленный внешний ASPI-интерфейс
Обработка зазоров : Добавлено к предыдущему треку
Выходной формат : Пользовательский кодировщик
Выбранный битрейт : 320 kBit/s
Качество : Высокий
Добавление ID3-тэга : Нет
Утилита сжатия : D:Program filesАудио копиExact Audio CopyFlacflac.exe
Дополнительные параметры : -V -8 -T "artist=%a" -T "title=%t" -T "album=%g" -T "date=%y" -T "tracknumber=%n" -T "genre=%m" %s
TOC извлечённого CD
Трек | Старт | Длительность | Начальный сектор | Конечный сектор
---------------------------------------------------------------------
1 | 0:00.00 | 3:26.25 | 0 | 15474
2 | 3:26.25 | 2:35.00 | 15475 | 27099
3 | 6:01.25 | 2:39.13 | 27100 | 39037
4 | 8:40.38 | 2:35.25 | 39038 | 50687
5 | 11:15.63 | 2:50.37 | 50688 | 63474
6 | 14:06.25 | 3:34.00 | 63475 | 79524
7 | 17:40.25 | 3:23.50 | 79525 | 94799
8 | 21:04.00 | 3:43.63 | 94800 | 111587
9 | 24:47.63 | 2:50.25 | 111588 | 124362
10 | 27:38.13 | 3:36.25 | 124363 | 140587
11 | 31:14.38 | 2:53.25 | 140588 | 153587
12 | 34:07.63 | 3:09.25 | 153588 | 167787
13 | 37:17.13 | 3:02.12 | 167788 | 181449
14 | 40:19.25 | 2:59.13 | 181450 | 194887
15 | 43:18.38 | 7:09.25 | 194888 | 227087
16 | 50:27.63 | 7:06.37 | 227088 | 259074
17 | 57:34.25 | 2:23.18 | 259075 | 269817
Трек 1
Имя файла C:Documents and SettingsAdminРабочий столCATAPULT - The Single Collection - 19961. Catapult – Hit The Big Time.wav
Длина предзазора 0:00:02.00
Пиковый уровень 98.4 %
Качество трека 99.9 %
CRC теста CA4C6644
CRC копии CA4C6644
Копирование... OK
Трек 2
Имя файла C:Documents and SettingsAdminРабочий столCATAPULT - The Single Collection - 19962. Catapult – Let It Be True.wav
Пиковый уровень 96.4 %
Качество трека 100.0 %
CRC теста 41CAB8F3
CRC копии 41CAB8F3
Копирование... OK
Трек 3
Имя файла C:Documents and SettingsAdminРабочий столCATAPULT - The Single Collection - 19963. Catapult – Let Your Hair Hang Down.wav
Пиковый уровень 98.7 %
Качество трека 100.0 %
CRC теста D878BEE0
CRC копии D878BEE0
Копирование... OK
Трек 4
Имя файла C:Documents and SettingsAdminРабочий столCATAPULT - The Single Collection - 19964. Catapult – Performers Prayer.wav
Пиковый уровень 93.6 %
Качество трека 100.0 %
CRC теста EEC5CB68
CRC копии EEC5CB68
Копирование... OK
Трек 5
Имя файла C:Documents and SettingsAdminРабочий столCATAPULT - The Single Collection - 19965. Catapult – Teeny Bopper Band.wav
Пиковый уровень 97.7 %
Качество трека 100.0 %
CRC теста B03C01F5
CRC копии B03C01F5
Копирование... OK
Трек 6
Имя файла C:Documents and SettingsAdminРабочий столCATAPULT - The Single Collection - 19966. Catapult – Nightrake.wav
Пиковый уровень 96.1 %
Качество трека 100.0 %
CRC теста DC0F96C3
CRC копии DC0F96C3
Копирование... OK
Трек 7
Имя файла C:Documents and SettingsAdminРабочий столCATAPULT - The Single Collection - 19967. Catapult – Seven Eleven.wav
Пиковый уровень 97.1 %
Качество трека 100.0 %
CRC теста 9D5C59A5
CRC копии 9D5C59A5
Копирование... OK
Трек 8
Имя файла C:Documents and SettingsAdminРабочий столCATAPULT - The Single Collection - 19968. Catapult – Springtime Ballyhoo.wav
Пиковый уровень 97.0 %
Качество трека 100.0 %
CRC теста C9D3ECAD
CRC копии C9D3ECAD
Копирование... OK
Трек 9
Имя файла C:Documents and SettingsAdminРабочий столCATAPULT - The Single Collection - 19969. Catapult – The Stealer.wav
Пиковый уровень 95.2 %
Качество трека 99.9 %
CRC теста 52B0B642
CRC копии 52B0B642
Копирование... OK
Трек 10
Имя файла C:Documents and SettingsAdminРабочий столCATAPULT - The Single Collection - 199610. Catapult – Back On The Road Again.wav
Пиковый уровень 97.3 %
Качество трека 100.0 %
CRC теста AFDE9679
CRC копии AFDE9679
Копирование... OK
Трек 11
Имя файла C:Documents and SettingsAdminРабочий столCATAPULT - The Single Collection - 199611. Catapult – Remember September.wav
Пиковый уровень 92.0 %
Качество трека 99.9 %
CRC теста BF07C6D4
CRC копии BF07C6D4
Копирование... OK
Трек 12
Имя файла C:Documents and SettingsAdminРабочий столCATAPULT - The Single Collection - 199612. Catapult – See You Back In '86.wav
Пиковый уровень 94.1 %
Качество трека 100.0 %
CRC теста D338A0E4
CRC копии D338A0E4
Копирование... OK
Трек 13
Имя файла C:Documents and SettingsAdminРабочий столCATAPULT - The Single Collection - 199613. Catapult – Here We Go.wav
Пиковый уровень 92.6 %
Качество трека 100.0 %
CRC теста 191E0BC2
CRC копии 191E0BC2
Копирование... OK
Трек 14
Имя файла C:Documents and SettingsAdminРабочий столCATAPULT - The Single Collection - 199614. Catapult – Run For My Wife.wav
Пиковый уровень 91.7 %
Качество трека 100.0 %
CRC теста 7C3263A9
CRC копии 7C3263A9
Копирование... OK
Трек 15
Имя файла C:Documents and SettingsAdminРабочий столCATAPULT - The Single Collection - 199615. Catapult – Accident (Bonus Track).wav
Пиковый уровень 96.8 %
Качество трека 99.9 %
CRC теста AD5866B0
CRC копии AD5866B0
Копирование... OK
Трек 16
Имя файла C:Documents and SettingsAdminРабочий столCATAPULT - The Single Collection - 199616. Catapult – Midsummer Switch (Bonus Track).wav
Пиковый уровень 95.4 %
Качество трека 100.0 %
CRC теста 9C08C51F
CRC копии 9C08C51F
Копирование... OK
Трек 17
Имя файла C:Documents and SettingsAdminРабочий столCATAPULT - The Single Collection - 199617. Catapult – White Christmas (Bonus Track).wav
Пиковый уровень 90.9 %
Качество трека 100.0 %
CRC теста 701C0BB2
CRC копии 701C0BB2
Копирование... OK
Ошибок не произошло
Конец отчёта
FileSonic
Wupload



Alternative download links

DOWNLOAD

Related MP3 FLAC to Catapult - The Single Collection (1996)
Feedback
All rights reserved.
WEBBG.com © 2000-2018