Black Sabbath - Master of Reality + Vol.4 (1987)
MP3 FLAC WMA APE HD

Black Sabbath - Master of Reality + Vol.4 (1987)

Artist: Black Sabbath
Title Of Album: Master of Reality
Year Of Release: 1987
Label: Nippon Phonogram Co.
Genre: Hard Rock
Quality: FLAC (image+.cue) + log
Bitrate: Lossless
Total Time: 1:11:47
Total Size: 430 Mb
Master of Reality is the third album by the British heavy metal band Black Sabbath, released in July 1971. It is sometimes noted as the first stoner rock album. Master of Reality was certified double platinum after having sold over 2 million copies.
Tracklist:
1. Sweet Leaf
2. After Forever
3. Embryo
4. Children of the Grave
5. Orchid
6. Lord of This World
7. Solitude
8. Into the Void
9. Wheels Of Confusion
10. Tomorrow's Dream
11. Changes
12. FX
13. Supernaut
14. Snowblind
15. Cornucopia
16. Laguna Sunrise
17. St. Vitus' Dance
Exact Audio Copy V0.99 prebeta 4 from 23. January 2008
Отчёт EAC об извлечении, выполненном 14. июня 2011, 0:17
Black Sabbath / Master of Reality and Vol.4
Дисковод: Optiarc DVD RW AD-7200A Adapter: 0 ID: 0
Режим чтения : Достоверность
Использование точного потока : Да
Отключение кэша аудио : Да
Использование указателей C2 : Нет
Коррекция смещения при чтении : 48
Способность читать области Lead-in и Lead-out : Нет
Заполнение пропущенных сэмплов тишиной : Да
Удаление блоков с тишиной в начале и конце : Нет
При вычислениях CRC использовались нулевые сэмплы : Да
Интерфейс : Встроенный Win32-интерфейс для Win NT/2000
Выходной формат : Пользовательский кодировщик
Выбранный битрейт : 768 kBit/s
Качество : Высокий
Добавление ID3-тэга : Нет
Утилита сжатия : C:Program FilesExact Audio CopyFLACFLAC.EXE
Дополнительные параметры : -6 -V -T "ARTIST=%a" -T "TITLE=%t" -T "ALBUM=%g" -T "DATE=%y" -T "TRACKNUMBER=%n" -T "GENRE=%m" -T "COMMENT=%e" %s -o %d
TOC извлечённого CD
Трек | Старт | Длительность | Начальный сектор | Конечный сектор
---------------------------------------------------------------------
1 | 0:00.37 | 5:06.53 | 37 | 23039
2 | 5:07.15 | 5:26.67 | 23040 | 47556
3 | 10:34.07 | 0:28.20 | 47557 | 49676
4 | 11:02.27 | 5:17.03 | 49677 | 73454
5 | 16:19.30 | 1:30.72 | 73455 | 80276
6 | 17:50.27 | 5:26.68 | 80277 | 104794
7 | 23:17.20 | 5:01.65 | 104795 | 127434
8 | 28:19.10 | 6:14.67 | 127435 | 155551
9 | 34:34.02 | 8:00.25 | 155552 | 191576
10 | 42:34.27 | 3:12.40 | 191577 | 206016
11 | 45:46.67 | 4:44.18 | 206017 | 227334
12 | 50:31.10 | 1:43.12 | 227335 | 235071
13 | 52:14.22 | 4:44.38 | 235072 | 256409
14 | 56:58.60 | 5:33.15 | 256410 | 281399
15 | 62:32.00 | 3:54.07 | 281400 | 298956
16 | 66:26.07 | 2:55.60 | 298957 | 312141
17 | 69:21.67 | 2:26.08 | 312142 | 323099
Характеристики диапазона извлечения и сообщения об ошибках
Выбранный диапазон
Имя файла D:imagesBlack Sabbath - Master of Reality + Vol.4Black Sabbath - Master of Reality and Vol.4.wav
Пиковый уровень 100.0 %
Качество диапазона 100.0 %
CRC копии A8CD8486
Копирование... OK
Ошибок не произошло
AccurateRip: сводка
Трек 1 нет в базе данных
Трек 2 нет в базе данных
Трек 3 нет в базе данных
Трек 4 нет в базе данных
Трек 5 нет в базе данных
Трек 6 нет в базе данных
Трек 7 нет в базе данных
Трек 8 нет в базе данных
Трек 9 нет в базе данных
Трек 10 нет в базе данных
Трек 11 нет в базе данных
Трек 12 нет в базе данных
Трек 13 нет в базе данных
Трек 14 нет в базе данных
Трек 15 нет в базе данных
Трек 16 нет в базе данных
Трек 17 нет в базе данных
Ни одного трека нет в базе AccurateRip
Конец отчёта
FileSonic
Wupload



Alternative download links

DOWNLOAD

Related MP3 FLAC to Black Sabbath - Master of Reality + Vol.4 (1987)
Feedback
All rights reserved.
WEBBG.com © 2000-2018