Bohren der Club of Gore - Geisterfaust (2005)
MP3 FLAC WMA APE HD

Bohren der Club of Gore - Geisterfaust (2005)

Artist: Bohren & der Club of Gore
Title Of Album: Geisterfaust
Year Of Release: 02 May 2005
Label: Wonder
Genre: Electronic, Jazz, Downtempo, Experimental
Quality: FLAC (Tracks,cue,log,cover) | MP3
Bitrate: lossless | 320kbps
Total Time: 58:55 min
Total Size: 221 mb/142 mb (+5%rec)
Tracklist
1. Zeigefinger (20:28)
2. Daumen (8:06)
3. Ringfinger (10:22)
4. Mittelfinger (12:10)
5. Kleiner Finger (7:46)
The doom rock card, the lounge jazz card, and the slow crawl card have all been played by various reviewers to describe Bohren & der Club of Gore's unique form of instrumental music. None of them has ever truly fit the band, and now even less than ever with Geisterfaust (Ghost Fist), their fourth effort, released three years after Black Earth. Even slower and more stripped down than before, the music loses its doom-laden atmosphere and becomes something eerily similar to the Necks' then-recent efforts, namely Aether and Mosquito/See Through. The stretches of silence, the resonating chords, the cyclical melodic developments, and the paradoxical atmosphere of tension (what will happen next?) and relaxation (it is, after all, extremely smooth music, no need to be so tense) all point to the Australian trio a thousand times more than anyone on the roster of Ipecac, the label that reissued Black Earth to worldwide attention a year before Geisterfaust came out. Then again, people who followed Bohren's (d)evolution from doom metal to minimal jazz-something will not be surprised by this new step. Some will find it lacking some punch, but given a few listens, it grows on you, especially thanks to the 20-minute "Zeigefinger" and the 12-minute "Mittelfinger," both masterpieces of subtle, disquieting nothingness. The concluding "Kleiner Finger" is the real shocker: a pure jazz ballad, with a full beat (i.e., with both a downbeat and an upbeat, instead of only cues) and a sultry sax solo. And so the most conventional piece becomes the oddest-sounding one. One can't see where Bohren can go from here, but in the meantime, Geisterfaust makes a very unusual and fine listen, even though most of their fans will agree that it's not their strongest release. ~ Franзois Couture
Bohren & Der return with 'Geisterfaust', their 4th studio album. Shuffling slower than ever, Bohren has stripped down their sound to the bone, becoming more gentle and less aggressive without any compromise. Featuring the 5 tracks 'Zeigefinger' (Index Finger), 'Daumen' (Thumb), 'Ringfinger' (Ring Finger), 'Mittelfinger' (Middle Finger) & 'Kleiner Finger' (Little Finger). Wonder. 2005.
Personnel: Christophe Closer (saxophone, Fender Rhodes piano, vibraphone); Robin Rodenberg (double bass, fretless bass); Thorsten Benning (percussion).
EAC extraction logfile from 7. March 2006, 22:49 for CD
Bohren & Der Blub Of Gore / Geisterfaust
Used drive : HP DVD Writer 300n Adapter: 1 ID: 0
Read mode : Secure with NO C2, accurate stream, disable cache
Read offset correction : 48
Overread into Lead-In and Lead-Out : No
Used output format : Internal WAV Routines
44.100 Hz; 16 Bit; Stereo
Other options :
Fill up missing offset samples with silence : Yes
Delete leading and trailing silent blocks : No
Native Win32 interface for Win NT & 2000
Track 1
Filename E:1 - Zeigefinger.wav
Pre-gap length 0:00:04.00
Peak level 98.8 %
Track quality 100.0 %
Test CRC A26E402B
Copy CRC A26E402B
Copy OK
Track 2
Filename E:2 - Daumen.wav
Peak level 98.0 %
Track quality 100.0 %
Test CRC 0A2B451D
Copy CRC 0A2B451D
Copy OK
Track 3
Filename E:3 - Ringfinger.wav
Peak level 98.8 %
Track quality 99.9 %
Test CRC 985200DD
Copy CRC 985200DD
Copy OK
Track 4
Filename E:4 - Mittelfinger.wav
Peak level 98.8 %
Track quality 100.0 %
Test CRC 4517EA51
Copy CRC 4517EA51
Copy OK
Track 5
Filename E:5 - Kleiner Finger.wav
Peak level 84.2 %
Track quality 99.9 %
Test CRC 6DCC848F
Copy CRC 6DCC848F
Copy OK
No errors occured
End of status report
AUDIOCHECKER v2.0 beta (build 457) - by Dester - [email protected]
~~~~~~~~~~~~~~~~~~~~~~~~~~~~~~~~~~
-=== DO NOT EDIT THIS FILE! ===-
Path: ...Bohren & der Club of Gore - Geisterfaust 2005 Flac
1 -=- 01 Bohren & der Club of Gore - Zeigefinger.flac -=- CDDA (100%)
2 -=- 02 Bohren & der Club of Gore - Daumen.flac -=- CDDA (99%)
3 -=- 03 Bohren & der Club of Gore - Ringfinger.flac -=- CDDA (100%)
4 -=- 04 Bohren & der Club of Gore - Mittelfinger.flac -=- CDDA (99%)
5 -=- 05 Bohren & der Club of Gore - Kleiner Finger.flac -=- CDDA (100%)
Summary 99,60% CDDA
23692932
Lossless
MP3




Alternative download links

HOTFILE HOTFILE

Related MP3 FLAC to Bohren der Club of Gore - Geisterfaust (2005)
Feedback
All rights reserved.
WEBBG.com © 2000-2018