Alessandro Cossu - Pensieri (2010)
MP3 FLAC WMA APE HD

Alessandro Cossu - Pensieri (2010)

Artist: Alessandro Cossu
Title Of Album: Pensieri
Year Of Release: 2010
Label: Italy
Genre: Guitar Virtuoso, Instrumental Rock
Quality: FLAC (tracks+.cue) + log
Bitrate: Lossless
Total Time: 00:41:01
Total Size: 283 Mb
Alessandro Cossu's new CD fpr 2010 is called Pensieri. Cossu is an Italian guitarist who was inspirationally blown away by the music of Malmsteen, Cacophony and Racer X (especially Racer X "Street Lethal" a very important record that led him towards the guitar hero concept). He was working on some solo compositions when, In 2004, he studied for one year at Lizard Accademie, one of the most important italian schools for contemporary music, with Raffaello Indri. Alessandro later packed his bags and flew to California for one year to study at GIT. There heI had the chanche to study with some great guitar players like Chris Broderick, Dan Gilbert, Allan Hinds and Jeff Kollman, as well as know and be inspired by many musicians. Recently he has officially joined the prog metal band Ashent.
Tracklist:
01. Out Of Place (4:18)
02. Melting Point (6:13)
03. Pensieri (4:51)
04. Direct Crash (4:41)
05. Away (5:19)
06. While Looking Outside (4:46)
08. Another Day (4:15)
Exact Audio Copy V0.99 prebeta 5 from 4. May 2009
Archivo Log de extracciones desde 26. Mayo 2011, 11:36
Alessandro Cossu / Pensieri
Usar unidad : HL-DT-STDVDRAM GH22NS50 Adapter: 1 ID: 0
Modo de Lectura : Seguro
Utilizar Corriente Exacta : Sн
Descartar Audio cachй : Sн
Utilizar los punteros C2 : No
Correcciуn de Desplazamiento de Lectura/Escritura combinadas : 667
Sobreleer tanto en Lead-In como en Lead-Out : No
Rellenar las muestras faltantes con silencios : Sн
Eliminar silencios inicial y final : No
Se han usado muestras nulas en los cбlculos CRC : Sн
Interfaz usada : Interfaz propio de Win32 para Windowns NT y 2000
Gestiуn de Gaps : Aсadido a la pista previa
Formato de Salida utilizado : Compresor definido por el usuario
Bitrate seleccionado : 1024 kBit/s
Calidad : Alta
Aсadir Etiqueta ID3 : No
Compresor de linea de comandos : C:Archivos de programaExact Audio CopyFLACFLAC.EXE
Opciones adicionales en lнnea de comandos : -6 -V -T "ARTIST=%a" -T "TITLE=%t" -T "ALBUM=%g" -T "DATE=%y" -T "TRACKNUMBER=%n" -T "GENRE=%m" -T "COMMENT=%e" %s -o %d
Usar desplazamiento de compresiуn : 0
TOC del CD extraido
Pista | Inicio | Duraciуn | Sector inicial | Sector final
-------------------------------------------------------------
1 | 0:00.00 | 4:18.18 | 0 | 19367
2 | 4:18.18 | 6:13.02 | 19368 | 47344
3 | 10:31.20 | 4:51.26 | 47345 | 69195
4 | 15:22.46 | 4:41.15 | 69196 | 90285
5 | 20:03.61 | 5:19.06 | 90286 | 114216
6 | 25:22.67 | 4:46.46 | 114217 | 135712
7 | 30:09.38 | 6:35.68 | 135713 | 165405
8 | 36:45.31 | 4:15.18 | 165406 | 184548
Pista 1
Nombre de Archivo D:Incoming1. Out Of Place.wav
Longitud Pre-gap 0:00:02.00
Nivel Pico 99.9 %
Calidad de Pista 100.0 %
Copiar CRC C2790443
Copia OK
Pista 2
Nombre de Archivo D:Incoming2. Melting Point.wav
Longitud Pre-gap 0:00:02.05
Nivel Pico 99.9 %
Calidad de Pista 100.0 %
Copiar CRC 7BA00DCC
Copia OK
Pista 3
Nombre de Archivo D:Incoming3. Pensieri.wav
Nivel Pico 99.9 %
Calidad de Pista 100.0 %
Copiar CRC B560E831
Copia OK
Pista 4
Nombre de Archivo D:Incoming4. Direct Crash.wav
Longitud Pre-gap 0:00:02.06
Nivel Pico 99.9 %
Calidad de Pista 100.0 %
Copiar CRC B4FDFAEB
Copia OK
Pista 5
Nombre de Archivo D:Incoming5. Away.wav
Longitud Pre-gap 0:00:01.74
Nivel Pico 99.9 %
Calidad de Pista 99.9 %
Copiar CRC F2327FA2
Copia OK
Pista 6
Nombre de Archivo D:Incoming6. While Looking Outside.wav
Longitud Pre-gap 0:00:02.01
Nivel Pico 99.9 %
Calidad de Pista 99.9 %
Copiar CRC 0609B2B2
Copia OK
Pista 7
Nombre de Archivo D:Incoming7. A Letter That Hasn't Been Written.wav
Longitud Pre-gap 0:00:01.59
Nivel Pico 99.9 %
Calidad de Pista 99.9 %
Copiar CRC 1D0D0E2B
Copia OK
Pista 8
Nombre de Archivo D:Incoming8. Another Day.wav
Longitud Pre-gap 0:00:02.06
Nivel Pico 99.9 %
Calidad de Pista 100.0 %
Copiar CRC 68FA1222
Copia OK
Sin Errores
Final del Informe
FileSonic
Wupload



Alternative download links

DOWNLOAD

Related MP3 FLAC to Alessandro Cossu - Pensieri (2010)
Feedback
All rights reserved.
WEBBG.com © 2000-2018