Ken Tamplin And Friends - Wake The Nations (2004)
MP3 FLAC WMA APE HD

Ken Tamplin And Friends - Wake The Nations (2004)

Artist: Ken Tamplin And Friends
Title Of Album: Wake The Nations
Year Of Release: 2004
Label: Flying Leap Records
Genre: Hard Rock
Quality: FLAC (image+.cue) + log
Bitrate: Lossless
Total Time: 78:44
Total Size: 584 Mb
Ken Tamplin is an American Christian rock performer and vocal coach. Tamplin is known for his 4 octave vocal range and has composed music for television and movies.
Tracklist:
01. The Story Of Love
02. We've Jihad Enough
03. Falling Houses
04. The Man With A Plan
05. Hare' Kristians
06. Wake The Nations
07. God In Heaven
08. Peace On Earth
09. Mystery
10. Cell Phone Freaks
11. Livin' Large
12. 7 Eleven People
13. Saints And Heroes
14. Waiting For Your Love
15. Every Day Is Precious
16. Come Together
17. Sing
18. Freedom
Exact Audio Copy V0.99 prebeta 5 from 4. May 2009
EAC extraction logfile from 26. July 2011, 10:56
Ken Tamplin & Friends / Wake The Nations
Used drive : Optiarc DVD RW AD-7191S Adapter: 3 ID: 1
Read mode : Secure
Utilize accurate stream : Yes
Defeat audio cache : Yes
Make use of C2 pointers : No
Read offset correction : 6
Overread into Lead-In and Lead-Out : No
Fill up missing offset samples with silence : Yes
Delete leading and trailing silent blocks : No
Null samples used in CRC calculations : Yes
Used interface : Native Win32 interface for Win NT & 2000
Used output format : User Defined Encoder
Selected bitrate : 768 kBit/s
Quality : High
Add ID3 tag : No
Command line compressor : C:Program FilesExact Audio CopyFlacflac.exe
Additional command line options : -8 -V %s
TOC of the extracted CD
Track | Start | Length | Start sector | End sector
---------------------------------------------------------
1 | 0:00.00 | 4:47.37 | 0 | 21561
2 | 4:47.37 | 3:11.67 | 21562 | 35953
3 | 7:59.29 | 5:08.20 | 35954 | 59073
4 | 13:07.49 | 5:07.30 | 59074 | 82128
5 | 18:15.04 | 4:07.17 | 82129 | 100670
6 | 22:22.21 | 3:56.36 | 100671 | 118406
7 | 26:18.57 | 5:13.15 | 118407 | 141896
8 | 31:31.72 | 4:17.03 | 141897 | 161174
9 | 35:49.00 | 4:13.30 | 161175 | 180179
10 | 40:02.30 | 3:40.71 | 180180 | 196750
11 | 43:43.26 | 4:41.34 | 196751 | 217859
12 | 48:24.60 | 3:53.46 | 217860 | 235380
13 | 52:18.31 | 3:53.04 | 235381 | 252859
14 | 56:11.35 | 4:21.32 | 252860 | 272466
15 | 60:32.67 | 4:59.29 | 272467 | 294920
16 | 65:32.21 | 4:04.62 | 294921 | 313282
17 | 69:37.08 | 5:17.03 | 313283 | 337060
18 | 74:54.11 | 3:52.37 | 337061 | 354497
Range status and errors
Selected range
Filename C:Ken Tamplin & Friends - Wake The NationsKen Tamplin & Friends - Wake The Nations.wav
Peak level 100.0 %
Range quality 100.0 %
Test CRC BBE68CF8
Copy CRC BBE68CF8
Copy OK
No errors occurred
AccurateRip summary
Track 1 not present in database
Track 2 not present in database
Track 3 cannot be verified as accurate (confidence 2) [CA227E61], AccurateRip returned [62D5248D]
Track 4 cannot be verified as accurate (confidence 2) [9480CC36], AccurateRip returned [06ED87B2]
Track 5 cannot be verified as accurate (confidence 2) [2D88B65A], AccurateRip returned [B49BDA52]
Track 6 cannot be verified as accurate (confidence 2) [A0C827B5], AccurateRip returned [F78257A9]
Track 7 cannot be verified as accurate (confidence 2) [3524FDF2], AccurateRip returned [64D55258]
Track 8 cannot be verified as accurate (confidence 2) [A2D13D0C], AccurateRip returned [35B45E97]
Track 9 not present in database
Track 10 cannot be verified as accurate (confidence 2) [C55E8BA5], AccurateRip returned [937E0526]
Track 11 not present in database
Track 12 not present in database
Track 13 cannot be verified as accurate (confidence 2) [75BA691D], AccurateRip returned [3996A4B8]
Track 14 cannot be verified as accurate (confidence 2) [DAB5A9D3], AccurateRip returned [5121BAEE]
Track 15 cannot be verified as accurate (confidence 2) [336F476A], AccurateRip returned [F5513D79]
Track 16 cannot be verified as accurate (confidence 2) [00749696], AccurateRip returned [E585A5C1]
Track 17 cannot be verified as accurate (confidence 2) [9C0F65B9], AccurateRip returned [5E948DAD]
Track 18 cannot be verified as accurate (confidence 2) [D65AD5DF], AccurateRip returned [BE9E7662]
13 track(s) could not be verified as accurate
5 track(s) not present in the AccurateRip database
No tracks could be verified as accurate
You may have a different pressing from the one(s) in the database
End of status report
FileSonic
Wupload



Alternative download links

DOWNLOAD

Related MP3 FLAC to Ken Tamplin And Friends - Wake The Nations (2004)
Feedback
All rights reserved.
WEBBG.com © 2000-2018