Dave Valentin - Legends (1978)
MP3 FLAC WMA APE HD

Dave Valentin - Legends (1978)

  • Genre: Music, Jazz, FLAC / APE
  • Formats: MP3 FLAC WMA HD APE
  • Album Size: 1716 mb.
  • Archive: ZIP RAR
Artist: Dave Valentin
Title Of Album: Legends
Year Of Release: 1978
Label: GRP Records, Inc. (GRD-9519)
Genre: Jazz, Crossover Jazz
Quality: WAVPack (image+.cue) + log
Bitrate: Lossless
Total Time: 36:20
Total Size: 202 Mb
Tracklist:
1. Legends - 4:49
2. Bourree In E Minor - 4:09
3. Sea Pines - 5:46
4. Crystal Silence - 3:06
5. Afro Blue - 6:12
6. Masquerade - 5:10
7. Patterns For The Sky - 3:42
8. I Want To Be Where You Are - 3:30
Exact Audio Copy V0.99 prebeta 4 from 23. January 2008
EAC extraction logfile from 23. January 2009, 1:27
Dave Valentin / Legends
Used drive : HL-DT-STDVDRAM GSA-4167B Adapter: 0 ID: 2
Read mode : Secure
Utilize accurate stream : Yes
Defeat audio cache : Yes
Make use of C2 pointers : No
Read offset correction : 667
Overread into Lead-In and Lead-Out : No
Fill up missing offset samples with silence : Yes
Delete leading and trailing silent blocks : No
Null samples used in CRC calculations : Yes
Used interface : Installed external ASPI interface
Used output format : User Defined Encoder
Selected bitrate : 128 kBit/s
Quality : High
Add ID3 tag : No
Command line compressor : G:Program FilesExact Audio Copywavpack.exe
Additional command line options : -hm -w "Title=%t" -w "Artist=%a" -w "Year=%y" -w "Genre=%m" %s %d
TOC of the extracted CD
Track | Start | Length | Start sector | End sector
---------------------------------------------------------
1 | 0:00.00 | 4:49.35 | 0 | 21709
2 | 4:49.35 | 4:08.52 | 21710 | 40361
3 | 8:58.12 | 5:43.55 | 40362 | 66141
4 | 14:41.67 | 3:06.53 | 66142 | 80144
5 | 17:48.45 | 6:10.25 | 80145 | 107919
6 | 23:58.70 | 5:10.05 | 107920 | 131174
7 | 29:09.00 | 3:43.62 | 131175 | 147961
8 | 32:52.62 | 3:27.73 | 147962 | 163559
Range status and errors
Selected range
Filename F:WAVDave Valentin - Legends.wav
Peak level 100.0 %
Range quality 100.0 %
Test CRC DDA68874
Copy CRC DDA68874
Copy OK
No errors occurred
AccurateRip summary
Track 1 cannot be verified as accurate (confidence 2) [A4AF5336], AccurateRip returned [9DE137EA]
Track 2 cannot be verified as accurate (confidence 2) [A61D1A74], AccurateRip returned [128E986C]
Track 3 cannot be verified as accurate (confidence 2) [669452CA], AccurateRip returned [A7AD8A46]
Track 4 cannot be verified as accurate (confidence 2) [B7391616], AccurateRip returned [D9D80C62]
Track 5 cannot be verified as accurate (confidence 2) [8CF8D478], AccurateRip returned [43FC1DD1]
Track 6 cannot be verified as accurate (confidence 2) [9FA3E530], AccurateRip returned [37D404E2]
Track 7 cannot be verified as accurate (confidence 2) [3314C752], AccurateRip returned [4EAAAF32]
Track 8 cannot be verified as accurate (confidence 2) [C71AE46A], AccurateRip returned [080B542C]
No tracks could be verified as accurate
You may have a different pressing from the one(s) in the database
End of status report
FileSonic.com
Turbobit.net



Alternative download links

DOWNLOAD

Related MP3 FLAC to Dave Valentin - Legends (1978)
Feedback
All rights reserved.
WEBBG.com © 2000-2018