Chaneton - Sombras Distantes (2010)
MP3 FLAC WMA APE HD

Chaneton - Sombras Distantes (2010)

Artist: Chaneton
Title Of Album: Sombras Distantes
Year Of Release: 2010
Label: Focal
Genre: Neo-Prog
Quality: FLAC (image+.cue) + log
Bitrate: Lossless
Total Time: 52:50
Total Size: 371 Mb
The group CHANETON was born by idea of its guitar player Alex Chaneton who was lead guitar of Argentinean prog rock MANDRAGORA. He then joined with vocalist Patricio Villanueva - a FISH style singer - and various other musicians who left the band prematurely. Finally the first album was finished with the formation of Carlos Kepple in keyboards, Jano Sarmenti in drums and Adrián Marques Gomes in bass guitar (he initially joined the group in the beginnings playing the rhythmic guitar).
Tracklist:
1. Cancion para America (Song for the Americas) 5:30
2. Quién puede verme? (Who Can See Me?) 5:53
3. Memoria de un Adios (Memory of a Goodbye) 6:04
4. Sidefavo, El Inmortal (Sidefavo, the Inmortal) 9:40
5. Actor sin Disfraz (Naked Actor) 2:14
6. La Cruz en el Parque (The Cross in the Green) 7:40
7. La Séptima Llave (The Seventh Key) 6:43
8. Hermus Invento (Beauteous Invention) 4:27
9. Sombras en la Ventana (Shadows in the Window) 8:33
Exact Audio Copy V1.0 beta 1 from 15. November 2010
EAC extraction logfile from 10. June 2011, 21:43
Sombras Distanses / Chaneton
Used drive : hp CDDVDW TS-L633M Adapter: 1 ID: 0
Read mode : Secure
Utilize accurate stream : Yes
Defeat audio cache : Yes
Make use of C2 pointers : No
Read offset correction : 6
Overread into Lead-In and Lead-Out : No
Fill up missing offset samples with silence : Yes
Delete leading and trailing silent blocks : No
Null samples used in CRC calculations : Yes
Used interface : Native Win32 interface for Win NT & 2000
Used output format : User Defined Encoder
Selected bitrate : 1024 kBit/s
Quality : High
Add ID3 tag : No
Command line compressor : C:Program Files (x86)FLACflac.exe
Additional command line options : -6 -V -T "ARTIST=%a" -T "TITLE=%t" -T "ALBUM=%g" -T "DATE=%y" -T "TRACKNUMBER=%n" -T "GENRE=%m" -T "COMMENT=%e" %s -o %d
TOC of the extracted CD
Track | Start | Length | Start sector | End sector
---------------------------------------------------------
1 | 0:00.00 | 5:29.10 | 0 | 24684
2 | 5:29.10 | 5:50.66 | 24685 | 51000
3 | 11:20.01 | 6:01.25 | 51001 | 78100
4 | 17:21.26 | 9:38.24 | 78101 | 121474
5 | 26:59.50 | 2:10.54 | 121475 | 131278
6 | 29:10.29 | 7:35.00 | 131279 | 165403
7 | 36:45.29 | 6:39.53 | 165404 | 195381
8 | 43:25.07 | 4:24.18 | 195382 | 215199
9 | 47:49.25 | 8:31.64 | 215200 | 253588
Range status and errors
Selected range
Filename C:UsersAlexander ZaitsevDesktopkinoSombras Distanses - Chaneton.wav
Peak level 96.6 %
Extraction speed 0.6 X
Range quality 100.0 %
Copy CRC EF9AADEF
Copy OK
No errors occurred
AccurateRip summary
Track 1 not present in database
Track 2 not present in database
Track 3 cannot be verified as accurate (confidence 2) [CC1C3E04], AccurateRip returned [18471CC2]
Track 4 cannot be verified as accurate (confidence 2) [8C16D882], AccurateRip returned [03F8CA6B]
Track 5 cannot be verified as accurate (confidence 2) [261BA9E5], AccurateRip returned [35BA9137]
Track 6 cannot be verified as accurate (confidence 2) [752F3A07], AccurateRip returned [73D4F571]
Track 7 cannot be verified as accurate (confidence 2) [93BE05F4], AccurateRip returned [8414BC95]
Track 8 cannot be verified as accurate (confidence 2) [898D6C70], AccurateRip returned [847B10FA]
Track 9 cannot be verified as accurate (confidence 2) [BF7504DA], AccurateRip returned [3F5125ED]
7 track(s) could not be verified as accurate
2 track(s) not present in the AccurateRip database
No tracks could be verified as accurate
You may have a different pressing from the one(s) in the database
End of status report
FileSonic
Wupload



Alternative download links

DOWNLOAD

Related MP3 FLAC to Chaneton - Sombras Distantes (2010)
Feedback
All rights reserved.
WEBBG.com © 2000-2018