The Juke Joints - Going To Chicago! (2010)
MP3 FLAC WMA APE HD

The Juke Joints - Going To Chicago! (2010)

  • Genre: Music, Blues, FLAC / APE
  • Formats: MP3 FLAC WMA HD APE
  • Album Size: 1653 mb.
  • Archive: ZIP RAR
Artist: The Juke Joints
Title Of Album: Going To Chicago!
Year Of Release: 2010
Label: Rax Trax Studio
Genre: Blues
Quality: APE (image+.cue) + log
Bitrate: Lossless
Total Time: 51:33
Total Size: 346 Mb
After 26 years, 11 albums and an unimaginable number of blistering shows, the Juke Joints, masters of rock rollin' blues, have succeeded in stretching their limits with undoubtedly their best and most diverse album so far.
Tracklist:
01. This Is It [0:03:05.32]
02. Magic Shoes [0:02:53.97]
03. Stax Sound [0:03:20.53]
04. Goodbye Baby [0:04:22.70]
05. Two Hearts [0:04:35.10]
06. Hard Times [0:03:46.92]
07. Bad Bad Feeling [0:05:50.34]
08. Time Will Tell [0:04:13.70]
09. Strollin On Lincoln Av. [0:04:20.29]
10. Addicted To The Blues [0:03:17.41]
11. Rock My Soul [0:03:18.66]
12. MAKE A STAND (with very special guest Ana Popovic) [0:03:03.40]
13. GOING TO CHICAGO (with very special guests Ronnie Baker Brooks and Eddy ‘The Chief’ Clearwater) [0:05:24.44]
Exact Audio Copy V0.99 prebeta 4 from 23. January 2008
Отчёт EAC об извлечении, выполненном 15. апреля 2011, 14:06
The Juke Joints / Going To Chicago!
Дисковод: Optiarc DVD RW AD-7173A Adapter: 0 ID: 1
Режим чтения : Достоверность
Использование точного потока : Да
Отключение кэша аудио : Да
Использование указателей C2 : Нет
Коррекция смещения при чтении : 48
Способность читать области Lead-in и Lead-out : Нет
Заполнение пропущенных сэмплов тишиной : Да
Удаление блоков с тишиной в начале и конце : Нет
При вычислениях CRC использовались нулевые сэмплы : Да
Интерфейс : Встроенный Win32-интерфейс для Win NT/2000
Выходной формат : Внутренние WAV-операции
Формат сэмплов : 44.100 Гц; 16 бит; стерео
TOC извлечённого CD
Трек | Старт | Длительность | Начальный сектор | Конечный сектор
---------------------------------------------------------------------
1 | 0:00.00 | 3:05.24 | 0 | 13898
2 | 3:05.24 | 2:53.73 | 13899 | 26946
3 | 5:59.22 | 3:20.40 | 26947 | 41986
4 | 9:19.62 | 4:22.53 | 41987 | 61689
5 | 13:42.40 | 4:35.08 | 61690 | 82322
6 | 18:17.48 | 3:46.69 | 82323 | 99341
7 | 22:04.42 | 5:50.26 | 99342 | 125617
8 | 27:54.68 | 4:13.53 | 125618 | 144645
9 | 32:08.46 | 4:20.22 | 144646 | 164167
10 | 36:28.68 | 3:17.31 | 164168 | 178973
11 | 39:46.24 | 3:18.50 | 178974 | 193873
12 | 43:04.74 | 3:03.30 | 193874 | 207628
13 | 46:08.29 | 5:24.33 | 207629 | 231961
Характеристики диапазона извлечения и сообщения об ошибках
Выбранный диапазон
Имя файла D:КОЛЛЕКЦИЯ 11Новая папкаThe Juke Joints - Going To Chicago!.wav
Пиковый уровень 100.0 %
Качество диапазона 99.9 %
CRC теста 8BF127DA
CRC копии 8BF127DA
Копирование... OK
Ошибок не произошло
AccurateRip: сводка
Трек 1 нет в базе данных
Трек 2 нет в базе данных
Трек 3 нет в базе данных
Трек 4 нет в базе данных
Трек 5 нет в базе данных
Трек 6 нет в базе данных
Трек 7 нет в базе данных
Трек 8 нет в базе данных
Трек 9 нет в базе данных
Трек 10 нет в базе данных
Трек 11 нет в базе данных
Трек 12 нет в базе данных
Трек 13 нет в базе данных
Ни одного трека нет в базе AccurateRip
Конец отчёта
FileSonic
Turbobit



Alternative download links

DOWNLOAD

Related MP3 FLAC to The Juke Joints - Going To Chicago! (2010)
Feedback
All rights reserved.
WEBBG.com © 2000-2018