Marc Antony - Marc Anthony (1999)
MP3 FLAC WMA APE HD

Marc Antony - Marc Anthony (1999)

Artist: Marc Anthony
Title Of Album: Marc Anthony
Year Of Release: 1999
Label: Columbia
Genre: Latin, Pop
Quality: Flac(Image+cue+Log)/mp3
Bitrate: Lossless/320kbps
Total Time: 67:02min
Total Size: 500Mb/150Mb
WebSite:
Tracklist:
01. When I Dream At Night [0:04:21.06]
02. Am I The Only One [0:04:24.13]
03. I Need To Know [0:03:48.46]
04. You Sang To Me [0:05:48.76]
05. My Baby You [0:03:59.26]
06. No One [0:04:41.37]
07. How Could I [0:04:28.46]
08. That's Okay [0:04:41.69]
09. Don't Let Me Leave [0:04:50.10]
10. Remember Me [0:03:48.13]
11. She's Been Good To Me [0:04:20.86]
12. Love Is All [0:04:30.46]
13. Dimelo (I Need To Know) [0:03:48.76]
14. Como Ella Me Quiere A Mi (She's Been Good To Me) [0:04:20.60]
15. Da La Vuelta [0:05:10.06]
Exact Audio Copy V0.99 prebeta 3 from 28. July 2007
Отчёт EAC об извлечении, выполненном 1. июня 2011, 21:45
Marc Anthony / When I Dream at Night
Дисковод: Optiarc DVD RW AD-7560A Adapter: 0 ID: 0
Режим чтения : Достоверность
Использование точного потока : Да
Отключение кэша аудио : Нет
Использование указателей C2 : Нет
Комбинированное смещение чтения/записи : 0
Способность читать области Lead-in и Lead-out : Нет
Заполнение пропущенных сэмплов тишиной : Да
Удаление блоков с тишиной в начале и конце : Нет
При вычислениях CRC использовались нулевые сэмплы : Да
Интерфейс : Встроенный Win32-интерфейс для Win NT/2000
Выходной формат : Пользовательский кодировщик
Выбранный битрейт : 768 kBit/s
Качество : Высокий
Добавление ID3-тэга : Нет
Утилита сжатия : C:Program Files (x86)Exact Audio CopyFLACFLAC.EXE
Дополнительные параметры : -6 -V -T "ARTIST=%a" -T "TITLE=%t" -T "ALBUM=%g" -T "DATE=%y" -T "TRACKNUMBER=%n" -T "GENRE=%m" -T "COMMENT=%e" %s -o %d
TOC извлечённого CD
Трек | Старт | Длительность | Начальный сектор | Конечный сектор
---------------------------------------------------------------------
1 | 0:00.00 | 4:21.05 | 0 | 19579
2 | 4:21.05 | 4:24.07 | 19580 | 39386
3 | 8:45.12 | 3:48.38 | 39387 | 56524
4 | 12:33.50 | 5:48.57 | 56525 | 82681
5 | 18:22.32 | 3:59.20 | 82682 | 100626
6 | 22:21.52 | 4:41.28 | 100627 | 121729
7 | 27:03.05 | 4:28.35 | 121730 | 141864
8 | 31:31.40 | 4:41.52 | 141865 | 162991
9 | 36:13.17 | 4:50.08 | 162992 | 184749
10 | 41:03.25 | 3:48.10 | 184750 | 201859
11 | 44:51.35 | 4:20.65 | 201860 | 221424
12 | 49:12.25 | 4:30.35 | 221425 | 241709
13 | 53:42.60 | 3:48.57 | 241710 | 258866
14 | 57:31.42 | 4:20.45 | 258867 | 278411
15 | 61:52.12 | 5:10.25 | 278412 | 301686
Характеристики диапазона извлечения и сообщения об ошибках
Выбранный диапазон
Имя файла C:UsersВалюшкаDesktopНовая папкаMarc Anthony - When I Dream at Night.wav
Пиковый уровень 99.9 %
Качество диапазона 100.0 %
CRC копии EF31460E
Копирование... OK
Ошибок не произошло
Конец отчёта
Download




Alternative download links

Uploaded

Related MP3 FLAC to Marc Antony - Marc Anthony (1999)
Feedback
All rights reserved.
WEBBG.com © 2000-2018