Zwicker - Songs Of Lucid Dreamers (2009)
MP3 FLAC WMA APE HD

Zwicker - Songs Of Lucid Dreamers (2009)

  • Genre: Music
  • Formats: MP3 FLAC WMA HD APE
  • Album Size: 1435 mb.
  • Archive: ZIP RAR
Artist: Zwicker
Title Of Album: Songs Of Lucid Dreamers
Year Of Release: 04.05.2009
Label: Compost Black Label
Genre: Electronica, Downtempo, Lo-Fi, Nu Disco
Quality: Flac(Image+Cue+Log+Covers)/mp3
Bitrate: Lossless/320kbps
Total Time: 57:58 min
Total Size: 335Mb/148Mb
WebSite:
Tracklist:
01. Who You Are (Heidi Happy)
02. Wake Up (Olivera Stanimirov)
03. Oddity (Olivera Stanimirov) (Album Version)
04. Dragon Fly (Billy Oden) (Album Version)
05. Sleepwalking (Jamie Lloyd)
06. Ping Pong Muses (Valentino Tomasi)
07. Sui's Knee (Jamie Lloyd) (Album Version)
08. Strangeways (Olivera Stanimirov)
09. Traumdeuter (Matt Didemus) (Album Version)
10. Submarine Kabelgau (James Teipdek)
11. Prism (Serpentine)
12. Make It Happen (Heide Happy)
Exact Audio Copy V0.99 prebeta 4 from 23. January 2008
EAC extraction logfile from 13. May 2009, 12:41
Zwicker / Songs Of Lucid Dreamers
Used drive : PIONEER DVD-RW DVR-112D Adapter: 1 ID: 0
Read mode : Secure
Utilize accurate stream : Yes
Defeat audio cache : Yes
Make use of C2 pointers : No
Read offset correction : 48
Overread into Lead-In and Lead-Out : No
Fill up missing offset samples with silence : Yes
Delete leading and trailing silent blocks : No
Null samples used in CRC calculations : Yes
Used interface : Installed external ASPI interface
Used output format : User Defined Encoder
Selected bitrate : 192 kBit/s
Quality : Low
Add ID3 tag : Yes
Command line compressor : C:Program FilesE A C AudioFlacflac.exe
Additional command line options : -V -8 -T "artist=%a" -T "title=%t" -T "album=%g" -T "date=%y" -T "tracknumber=%n" -T "genre=%m" %s
TOC of the extracted CD
Track | Start | Length | Start sector | End sector
---------------------------------------------------------
1 | 0:00.00 | 3:58.04 | 0 | 17853
2 | 3:58.04 | 4:37.45 | 17854 | 38673
3 | 8:35.49 | 4:19.10 | 38674 | 58108
4 | 12:54.59 | 5:10.60 | 58109 | 81418
5 | 18:05.44 | 4:33.28 | 81419 | 101921
6 | 22:38.72 | 4:38.52 | 101922 | 122823
7 | 27:17.49 | 5:39.24 | 122824 | 148272
8 | 32:56.73 | 4:34.37 | 148273 | 168859
9 | 37:31.35 | 5:22.05 | 168860 | 193014
10 | 42:53.40 | 4:54.59 | 193015 | 215123
11 | 47:48.24 | 5:23.65 | 215124 | 239413
12 | 53:12.14 | 4:45.68 | 239414 | 260856
Range status and errors
Selected range
Filename G:Zwicker - Songs Of Lucid DreamersZwicker - Songs Of Lucid Dreamers.wav
Peak level 96.6 %
Range quality 99.9 %
Test CRC 1B1FF0E9
Copy CRC 1B1FF0E9
Copy OK
No errors occurred

AccurateRip summary

Track 1 not present in database
Track 2 not present in database
Track 3 not present in database
Track 4 not present in database
Track 5 not present in database
Track 6 not present in database
Track 7 not present in database
Track 8 not present in database
Track 9 not present in database
Track 10 not present in database
Track 11 not present in database
Track 12 not present in database

None of the tracks are present in the AccurateRip database
End of status report
Zwicker a.k.a. Cyril Boehler is a prolific producer, composer and DJ from Zurich. He is part of the vital Zurich electronic scene and has been involved in countless productions receiving praise from audiences all over the world.
After a handful of successful ZWICKER vinyl releases on the renowned BearFunk, Compost Black Label and Get Physical labels it was time to refine his warm mixture of mutated Disco, House, Electro and Pop on a full-length album. On „Songs of Lucid Dreamers“ he has created a unique blend combining electronic styles with lyrics and songwriting.
Lossless

MP3




Alternative download links

hotfile.com-1 hotfile.com-2 uploaded.to-1 uploaded.to-2 HOTFILE UPLOADED

Related MP3 FLAC to Zwicker - Songs Of Lucid Dreamers (2009)
Feedback
All rights reserved.
WEBBG.com © 2000-2018