Neil Diamond - Primitive (1984) 1986, Reissue
MP3 FLAC WMA APE HD

Neil Diamond - Primitive (1984) 1986, Reissue

Artist: Neil Diamond
Title: Primitive
Year Of Release: 1986
Label: Columbia Records / CBS Inc. (USA)
Genre: Pop/Rock, Singer-Songwriter, AC
Quality: FLAC (img.+.cue+.log) | MP3 320kbps
Total Time: 39:53
Total Size: 355,89 | 112,03 Mb (Full Scans)
WebSite:

"Primitive" is the sixteenth studio album by Neil Diamond. It was released in 1984 on Columbia Records. Its singles "Turn Around", "Sleep With Me Tonight", and "You Make Me Feel Like Christmas" reach #4, 24, and 28, respectively on the Billboard Adult Contemporary singles chart, while "Turn Around" also reached #62 on the Billboard Hot 100 chart. The album was certified gold by the RIAA on October 5, 1984. ~Wikipedia~
"Primitive" attempts to capitalize on the easy listening success of Heartlight by replicating its sound and structure. In other words, it's another collection of lightweight romantic ballads that are stifled by the immaculate production. Diamond's collaborations with Burt Bacharach ("Turn Around," "Sleep With Me Tonight," "Crazy") show some signs of life, particularly the graceful "Turn Around," but they're not enough to save the album from being a generally uninvolving affair. ~Review by Stephen Thomas Erlewine~
Release of the album: 1984, [LP Columbia, Cat.# QC 39199, USA]
Release of this CD: 1986 [CD Columbia Records/CBS Inc. (USA), Cat.# CK 39199 / UPC: 07464391992]
(c) 1984, 1986 Neil Diamond and CBS Inc. / (p) 1984 Neil Diamond and CBS Inc.
Manufactured by Columbia Records/CBS Inc.
Printed in U.S.A.


Credits:

Acoustic Guitar, Electric Guitar – Richard Bennett (tracks: 2 to 4, 9 to 11)
Arranged By [Strings], Conductor [Strings] – Jeremy Lubbock (tracks: 5)
Arranged By [Synthesizers], Conductor [Synthesizer] – David Foster (tracks: 6)
Art Direction, Design – David Kirschner
Backing Vocals – Richard Page (tracks: 1, 6, 8), Steve George (tracks: 1, 6, 8)
Bass – Neil Stubenhaus (tracks: 1, 5, 6, 7, 8), Reinie Press (tracks: 2 to 4, 9 to 11)
Coordinator [Album Production] – Sam Cole
Coordinator [Production] – Bradford Rosenberger, Jo-Anne McGettrick (tracks: 1, 7, 8)
Design [Additional] – Jan Weinberg
Drums – John Robinson (tracks: 1, 5, 6, 7, 8), Ron Tutt (tracks: 2 to 4, 9 to 11)
Electric Piano [Fender Rhodes], Synthesizer – David Foster (tracks: 5, 6)
Engineer [Additional] – Gabe Veltri (tracks: 5, 6), Michael Brooks (tracks: 5, 6)
Engineer [Assistant] – Bobby Gerber (tracks: 5, 6), David Dubow (tracks: 5, 6), Glen Holguin (tracks: 5, 6), Sharon Rice (tracks: 1, 7, 8)
Engineer [Assitant] – Steve Crimmel (tracks: 1, 7)
Engineer [Recording, Remix] – Jeremy Smith (tracks: 5, 6)
Engineer [Recording] – George Massenburg (tracks: 1, 7, 8)
Guitar – Dennis Herring (tracks: 5, 6), Doug Rhone (tracks: 2 to 4, 9 to 11), George Doering (tracks: 5, 6), Marty Walsh (tracks: 1, 7, 8)
Keyboards – Greg Phillinganes (tracks: 1, 7, 8)
Keyboards, Arranged By [Strings, Horns], Conductor [Strings, Horns] – Michel Colombier (tracks: 1, 7, 8)
Mixed By – Allen Sides (tracks: 1, 7), Mick Guzauski (tracks: 8)
Percussion – King Errisson (tracks: 2 to 4, 9 to 11), Lenny Castro (tracks: 5, 6), Paulinho da Costa (tracks: 1, 7, 8), Vince Charles (tracks: 1 to 4, 7 to 11)
Photography By – Norman Seeff
Piano – Burt Bacharach (tracks: 5)
Piano, Keyboards – Tom Hensley (tracks: 2 to 4, 9 to 11)
Synthesizer – Robbie Buchanan (tracks: 1, 7, 8)
Synthesizer [Additional] – Michael Boddicker (tracks: 5, 6), Steve Mitchell (tracks: 5)
Synthesizer, Piano – Alan Lindgren (tracks: 2 to 4, 9 to 11)
Vocals – Linda Press (tracks: 2 to 4, 9 to 11)


Tracklist:

01. Turn Around (03:45)
(Burt Bacharach, Neil Diamond, Carole Bayer Sager)
02. Primitive (04:27)
(Neil Diamond)
03. Fire On The Tracks (03:08)
(Neil Diamond)
04. Brooklyn On A Saturday Night (03:41)
(Neil Diamond)
05. Sleep With Me Tonight (03:42)
(Burt Bacharach, Neil Diamond, Carole Bayer Sager)
06. Crazy (03:41)
(Burt Bacharach, Neil Diamond, Carole Bayer Sager)
07. My Time With You (04:30)
(Tom Hensley, Alan Lindgren)
08. Love's Own Song (03:33)
(Sam Cole, Doug Rhone)
09. It's A Trip (Go For The Moon) (02:49)
(Neil Diamond)
10. You Make It Feel Like Christmas (03:59)
(Neil Diamond)
11. One By One (02:37)
(Neil Diamond)

--------------------------------------------------------------------------------
Analyzed: Neil Diamond / Primitive
--------------------------------------------------------------------------------

DR Peak RMS Duration Track
--------------------------------------------------------------------------------
DR14 -2.21 dB -20.33 dB 3:45 01-Turn Around
DR17 -1.50 dB -21.06 dB 4:27 02-Primitive
DR13 -2.41 dB -19.18 dB 3:08 03-Fire On The Tracks
DR16 -2.22 dB -22.34 dB 3:41 04-Brooklyn On A Saturday Night
DR12 -3.28 dB -20.32 dB 3:42 05-Sleep With Me Tonight
DR14 -3.40 dB -19.76 dB 3:41 06-Crazy
DR14 -2.64 dB -20.57 dB 4:30 07-My Time With You
DR15 -1.39 dB -19.20 dB 3:33 08-Love's Own Song
DR16 0.00 dB -18.14 dB 2:49 09-It's A Trip (Go For The Moon)
DR14 -2.60 dB -21.32 dB 3:59 10-You Make It Feel Like Christmas
DR14 -1.29 dB -19.56 dB 2:37 11-One By One
--------------------------------------------------------------------------------

Number of tracks: 11
Official DR value: DR14

Samplerate: 44100 Hz
Channels: 2
Bits per sample: 16
Bitrate: 806 kbps
Codec: FLAC
================================================================================




Alternative download links

Turbobit Turbobit

Related MP3 FLAC to Neil Diamond - Primitive (1984) 1986, Reissue
Feedback
All rights reserved.
WEBBG.com © 2000-2018