Mitch Winehouse - Rush of Love (2011)
MP3 FLAC WMA APE HD

Mitch Winehouse - Rush of Love (2011)

Artist: Mitch Winehouse
Title Of Album: Rush of Love {Janey Records, UK / MVD Audio MVD5113A, US}
Year Of Release: 2011
Label: Janey Records / MVD Audio
Genre: Vocal Jazz
Quality: FLAC (image+.cue) + log
Bitrate: Lossless
Total Time: 00:35:20
Total Size: 243 Mb
Mitch Winehouse is a father of Amy Winehouse. He peforms Vocal Jazz.
Tracklist:
01. Please be Kind
02. How Insensitive
03. Rush of Love to the Heart
04. Tell Me
05. Day by Day
06. I Apologise
07. Nights
08. Close Your Eyes
09. No More Broken Hearts
10. You Go To My Head
11. April in Paris
Exact Audio Copy V0.99 prebeta 5 from 4. May 2009
EAC extraction logfile from 26. August 2011, 0:25
Mitch Winehouse / Rush of Love
Used drive : HL-DT-STDVD-RAM GSA-H54N Adapter: 0 ID: 0
Read mode : Secure
Utilize accurate stream : Yes
Defeat audio cache : Yes
Make use of C2 pointers : No
Read offset correction : 102
Overread into Lead-In and Lead-Out : No
Fill up missing offset samples with silence : Yes
Delete leading and trailing silent blocks : No
Null samples used in CRC calculations : Yes
Used interface : Native Win32 interface for Win NT & 2000
Used output format : User Defined Encoder
Selected bitrate : 320 kBit/s
Quality : High
Add ID3 tag : No
Command line compressor : C:Program FilesExact Audio CopyFlacflac.exe
Additional command line options : -8 -V %s
TOC of the extracted CD
Track | Start | Length | Start sector | End sector
---------------------------------------------------------
1 | 0:00.00 | 2:59.45 | 0 | 13469
2 | 2:59.45 | 3:37.35 | 13470 | 29779
3 | 6:37.05 | 3:31.13 | 29780 | 45617
4 | 10:08.18 | 3:17.39 | 45618 | 60431
5 | 13:25.57 | 2:27.25 | 60432 | 71481
6 | 15:53.07 | 3:53.58 | 71482 | 89014
7 | 19:46.65 | 2:57.37 | 89015 | 102326
8 | 22:44.27 | 2:22.15 | 102327 | 112991
9 | 25:06.42 | 2:28.49 | 112992 | 124140
10 | 27:35.16 | 4:25.51 | 124141 | 144066
11 | 32:00.67 | 3:19.41 | 144067 | 159032
Range status and errors
Selected range
Filename C:EACMitch Winehouse - Rush of Love.wav
Peak level 99.9 %
Range quality 100.0 %
Test CRC 0F2BE3BD
Copy CRC 0F2BE3BD
Copy OK
No errors occurred
AccurateRip summary
Track 1 not present in database
Track 2 not present in database
Track 3 not present in database
Track 4 not present in database
Track 5 not present in database
Track 6 not present in database
Track 7 not present in database
Track 8 not present in database
Track 9 not present in database
Track 10 not present in database
Track 11 not present in database
None of the tracks are present in the AccurateRip database
End of status report
FileSonic
Wupload



Alternative download links

DOWNLOAD

Related MP3 FLAC to Mitch Winehouse - Rush of Love (2011)
Feedback
All rights reserved.
WEBBG.com © 2000-2018